Всё лучшее - детям! Сборник мультфильмов (1954-1962) DVD5


Статистика раздачи
Размер: 4.42 ГБ | Добавлен: 18 июл 2014, 19:09 | Скачали: 4
Сидеров: 12  [0 байт/сек]    Личеров: 5  [0 байт/сек]

Сообщение Гость » 18 июл 2014, 19:09

Всё лучшее - детям! Сборник мультфильмов (1954-1962) DVD5

Русское название: Всё лучшее - детям! Сборник мультфильмов
Год выпуска: 1954-1962
Страна: СССР
Жанр: Детский, Рисованная анимация

DVD-меню: Отсутствует
Бонусы: Отсутствуют
Субтитры: Отсутствуют

Режиссер: Л.Амальрик, В.Брумберг, З.Брумберг, А.Иванов
Персонажи: М.Виноградова, М.Юльская, И.Потоцкая, М.Корабельниникова, Г.Вицин, Ю.Хржановский, Г.Миляр, Р.Плятт, Ф.Иванов. С.Мартинсон

Описание:
В сборник вошли прекрасные мультфильмы, созданные мастерами классической отечественной анимации. Каждый мультфильм несёт добро нашим малышам и полезные разъяснения главных жизненных ценностей. Малыши запомнят что такое опасность и как ее предотвратить, задумаются над добром и злом, научатся ценить дружбу и осуждать предательство. Дети получат огромное удовольствие , а взрослым фильмы позволят хоть на мгновение вернуться в детские годы и и вспомнить прекрасное время беззаботности. Приятного просмотра!

Продолжительность: 03:14:52
Качество видео: DVD5

Видео: MPEG 2, 720x576 (4:3), 25.000 fps, 7 000 Kbps (0.207 bit/pixel)
Аудио: AC-3, 48.0 KHz, 2 ch, 128 Kbps, CBR
Видео
Идентификатор : 224 (0xE0)
Формат : MPEG Video
Версия формата : Version 2
Профиль формата : Main@Main
Параметр BVOP формата : Да
Параметр матрицы формата : По умолчанию
Параметр GOP формата : M=3, N=12
Продолжительность : 29 м.
Вид битрейта : Переменный
Битрейт : 2146 Кбит/сек
Максимальный битрейт : 7000 Кбит/сек
Ширина : 720 пикселей
Высота : 576 пикселей
Соотношение сторон : 4:3
Частота кадров : 25,000 кадров/сек
Стандарт вещания : PAL
Цветовое пространство : YUV
Субдискретизация насыщенности : 4:2:0
Битовая глубина : 8 бит
Тип развёртки : Прогрессивная
Метод сжатия : С потерями
Бит/(Пиксели*Кадры) : 0.207
Размер потока : 453 Мбайт (92%)

Аудио
Идентификатор : 189 (0xBD)-128 (0x80)
Формат : AC-3
Формат/Информация : Audio Coding 3
Расширение режима : CM (complete main)
Режим смешивания : DVD-Video
Продолжительность : 29 м.
Вид битрейта : Постоянный
Битрейт : 128 Кбит/сек
Каналы : 2 канала
Расположение каналов : Front: L R
Частота : 48,0 КГц
Битовая глубина : 16 бит
Метод сжатия : С потерями
Задержка видео : 130 мс.
Размер потока : 27,0 Мбайт (6%)
Опасная шалость

Описaние:
Фильм-предостережение от опасных шалостей.



Скриншоты:


«Стрела» улетает в сказку

Описaние:
На авиамодельных состязаниях модель Стрела, пролетев рекордное расстояние, опускается в заповеднике Сказка. Пионер Вова, чья модель заняла второе место, отстал от товарищей в лесу. Мальчуган хитрит: если Стрела не будет найдена, то он получит первое место.



Скриншоты:


Остров ошибок

Описaние:
Комедийно-фантастический фильм о двоечнике Коле Сорокине, которого лебеди-двойки уносят на остров ошибок. На острове неправильное решение задачи доставляет Коле много неприятностей. Эти испытания заставляют героя по-другому отнестись к своим обязанностям.



Скриншоты:



Стёпа - моряк

Описaние:
У пионера Степана в жизни важная цель успеть сделать географическое открытие. Уже открыт Южный полюс и Берингов пролив, надо спешить…



Скриншоты:


Петя и Красная шапочка

Описaние:
По мотивам сказки Ш. Перро — современная версия, в которой Пионер Петя помогает героям старой сказки победить Волка.



Скриншоты:


Спортландия

Описaние:
Современная сказка о ленивом Мите, который спасся из страны Ленивии и в Спортландии получил значок БГТО (Будь готов к труду и обороне).



Скриншоты:


Тайна далёкого острова

Описaние:
Приключения пионера Пети, островитянина Дума и советской подводной лодки в южных морях.



Скриншоты:


Человечка нарисовал я

Описaние:
1 сентября. В школу самый первый пришёл мальчик Федя. В пылу радости Федя нарисовал углем на белой стене маленького весёлого человечка в шляпе и с зонтиком. На уроке учитель заметил человечка и спросил, кто нарисовал его, но Федя, испугавшись наказания,
промолчал, и когда учитель попросил учеников поднять руки, Федя перед этим потихоньку вытер их, а его друг, с которым тот поздоровался в классе, ничего не подозревая, поднял испачканную углём руку и попался.



Скриншоты:


Королева Зубная щётка

Описaние:
По мотивам сказки С. Могилевской о маленькой грязнуле, которую подданные Королевы приучили к аккуратности.



Скриншоты:


Приключения Мурзилки (выпуски 1 и 2)

Описaние:
Специальный корреспондент журнала Мурзилка получает задание сфотографировать для обложки журнала портрет хорошего мальчика. Мурзилка попадает в квартиру, где живет школьник Петя.



Скриншоты:


Скриншоты:



Правила, инструкции, FAQ!!!
Торрент  Добавлен [18 июл 2014, 19:09] Скачать торрент
Скачать торрент
[ Размер 24.3 КБ / Просмотров 50 ]

Статус
Проверен 
 
Размер  4.42 ГБ
Приватный: Нет (DHT включён)
.torrent скачан  4
Как залить торрент? | Как скачать Torrent? | Как смотреть и слушать онлайн?  
Гость
 


Вернуться в Отечественные мультфильмы (DVD Video)

Кто сейчас на конференции

Сейчас этот форум просматривают: нет зарегистрированных пользователей и гости: 0

   Наша команда  Удалить cookies конференции • Часовой пояс: UTC + 3 часа

Пользовательское соглашение  |  Для правообладателей  | 

croncron