(Vocal, Easy Listening, Pop) [CD] Sarah Brightman - Dreamchaser (Limited Edition) [#SB005SDX, EU] - 2013, FLAC (tracks+.cue), lossless


Статистика раздачи
Размер: 467.66 МБ | Добавлен: 12 май 2020, 13:17 | Скачали: 0
Сидеров: 0  [0 байт/сек]    Личеров: 0  [0 байт/сек]

Сообщение Гость » 12 май 2020, 13:17

Sarah Brightman / Dreamchaser (Limited Edition) [#SB005SDX, EU]
Жанр: Vocal, Easy Listening, Pop
Носитель: CD
Страна-производитель диска (релиза): EU
Год издания: 2013
Издатель (лейбл): Simha, LLC
Номер по каталогу: SB005SDX
Страна исполнителя (группы): England
Аудиокодек: FLAC (*.flac)
Тип рипа: tracks+.cue
Продолжительность: 01:19:59
Источник: интернет (неизвестен)
Наличие сканов в содержимом раздачи: нет
Треклист:
01. Angel
02. One Day Like This
03. Glósóli
04. Lento E Largo From Symphony No.3. Op. 36 ("Symphony Of Sorrowful Songs")
05. B 612
06. Breathe Me
07. Ave Maria
08. Éperdu
09. A Song For India
10. Venus And Mars
11. Closer
bonus tracks:
12. In The Air
13. Hawaii '78
14. 7th Heaven
15. So Long Ago So Clear
Код: Выделить всё
Exact Audio Copy V1.0 beta 3 from 29. August 2011
Отчёт EAC об извлечении, выполненном 5. мая 2014, 6:00
Sarah Brightman / Dreamchaser (Super Deluxe) [Simha, LLC - SB005SDX]
Дисковод: Optiarc DVD RW AD-7803H   Adapter: 1  ID: 0
Режим чтения                 : Достоверность
Использование точного потока : Да
Отключение кэша аудио        : Да
Использование указателей C2  : Нет
Коррекция смещения при чтении                     : 48
Способность читать области Lead-in и Lead-out     : Нет
Заполнение пропущенных сэмплов тишиной            : Да
Удаление блоков с тишиной в начале и конце        : Нет
При вычислениях CRC использовались нулевые сэмплы : Да
Интерфейс                                         : Встроенный Win32-интерфейс для Win NT/2000
Обработка зазоров                                 : Добавлено к предыдущему треку
Выходной формат          : Пользовательский кодировщик
Выбранный битрейт        : 1024 kBit/s
Качество                 : Высокий
Добавление ID3-тега      : Нет
Утилита сжатия           : C:\Program Files (x86)\Exact Audio Copy\Flac\flac.exe
Дополнительные параметры :  -8 -V -T "ARTIST=%artist%" -T "TITLE=%title%" -T "ALBUM=%albumtitle%" -T "DATE=%year%" -T "TRACKNUMBER=%tracknr%" -T "GENRE=%genre%" -T "COMMENT=ripped by Jurassic Giant Bird" %source%
TOC извлечённого CD
     Трек |   Старт  | Длительность | Начальный сектор | Конечный сектор
    ---------------------------------------------------------------------
       1  |  0:00.00 |    5:33.27   |           0      |      25001
       2  |  5:33.27 |    6:06.30   |       25002      |      52481
       3  | 11:39.57 |    6:50.29   |       52482      |      83260
       4  | 18:30.11 |    5:39.06   |       83261      |     108691
       5  | 24:09.17 |    4:50.47   |      108692      |     130488
       6  | 28:59.64 |    4:48.48   |      130489      |     152136
       7  | 33:48.37 |    5:48.59   |      152137      |     178295
       8  | 39:37.21 |    5:07.31   |      178296      |     201351
       9  | 44:44.52 |    3:26.62   |      201352      |     216863
      10  | 48:11.39 |    4:26.09   |      216864      |     236822
      11  | 52:37.48 |    8:12.54   |      236823      |     273776
      12  | 60:50.27 |    4:37.28   |      273777      |     294579
      13  | 65:27.55 |    4:40.37   |      294580      |     315616
      14  | 70:08.17 |    4:23.39   |      315617      |     335380
      15  | 74:31.56 |    5:27.61   |      335381      |     359966
Трек  1
     Имя файла C:\Users\Саша\Music\Раздачи\01. Sarah Brightman -  Angel.wav
     Длина предзазора  0:00:02.00
     Пиковый уровень 92.2 %
     Скорость извлечения 1.3 X
     Качество трека 100.0 %
     CRC теста 8DAED6F4
     CRC копии 8DAED6F4
     Точное извлечение (достоверность 1)  [8478F2C0]  (AR v2)
     Копирование... OK
Трек  2
     Имя файла C:\Users\Саша\Music\Раздачи\02. Sarah Brightman -  One Day Like This.wav
     Пиковый уровень 96.6 %
     Скорость извлечения 1.5 X
     Качество трека 100.0 %
     CRC теста 3F6C18BF
     CRC копии 3F6C18BF
     Точное извлечение (достоверность 1)  [FE25C830]  (AR v2)
     Копирование... OK
Трек  3
     Имя файла C:\Users\Саша\Music\Раздачи\03. Sarah Brightman -  Glósóli.wav
     Пиковый уровень 92.2 %
     Скорость извлечения 1.7 X
     Качество трека 100.0 %
     CRC теста 54442B41
     CRC копии 54442B41
     Точное извлечение (достоверность 1)  [13A5D2B6]  (AR v2)
     Копирование... OK
Трек  4
     Имя файла C:\Users\Саша\Music\Раздачи\04. Sarah Brightman -  Lento E Largo From Symphony No.3. Op. 36 (Symphony Of Sorrowful Songs).wav
     Пиковый уровень 96.6 %
     Скорость извлечения 1.9 X
     Качество трека 100.0 %
     CRC теста 179E7990
     CRC копии 179E7990
     Точное извлечение (достоверность 1)  [7A4E0748]  (AR v2)
     Копирование... OK
Трек  5
     Имя файла C:\Users\Саша\Music\Раздачи\05. Sarah Brightman -  B 612.wav
     Пиковый уровень 97.6 %
     Скорость извлечения 2.0 X
     Качество трека 100.0 %
     CRC теста 292E15DE
     CRC копии 292E15DE
     Точное извлечение (достоверность 1)  [90B36C91]  (AR v2)
     Копирование... OK
Трек  6
     Имя файла C:\Users\Саша\Music\Раздачи\06. Sarah Brightman -  Breathe Me.wav
     Пиковый уровень 93.4 %
     Скорость извлечения 2.1 X
     Качество трека 100.0 %
     CRC теста 382B9AA7
     CRC копии 382B9AA7
     Точное извлечение (достоверность 1)  [D99C687F]  (AR v2)
     Копирование... OK
Трек  7
     Имя файла C:\Users\Саша\Music\Раздачи\07. Sarah Brightman -  Ave Maria.wav
     Пиковый уровень 96.6 %
     Скорость извлечения 2.2 X
     Качество трека 100.0 %
     CRC теста CF49C099
     CRC копии CF49C099
     Точное извлечение (достоверность 1)  [CFB2DF78]  (AR v2)
     Копирование... OK
Трек  8
     Имя файла C:\Users\Саша\Music\Раздачи\08. Sarah Brightman -  Éperdu.wav
     Пиковый уровень 97.6 %
     Скорость извлечения 2.1 X
     Качество трека 99.9 %
     CRC теста E4C0B1B7
     CRC копии E4C0B1B7
     Точное извлечение (достоверность 1)  [D0A1B307]  (AR v2)
     Копирование... OK
Трек  9
     Имя файла C:\Users\Саша\Music\Раздачи\09. Sarah Brightman -  A Song For India.wav
     Пиковый уровень 96.6 %
     Скорость извлечения 1.9 X
     Качество трека 99.9 %
     CRC теста F76A3DD5
     CRC копии F76A3DD5
     Точное извлечение (достоверность 1)  [C5AAC12E]  (AR v2)
     Копирование... OK
Трек 10
     Имя файла C:\Users\Саша\Music\Раздачи\10. Sarah Brightman -  Venus And Mars.wav
     Пиковый уровень 96.6 %
     Скорость извлечения 2.4 X
     Качество трека 100.0 %
     CRC теста 8D3322F2
     CRC копии 8D3322F2
     Точное извлечение (достоверность 1)  [E4CF2FF8]  (AR v2)
     Копирование... OK
Трек 11
     Имя файла C:\Users\Саша\Music\Раздачи\11. Sarah Brightman -  Closer.wav
     Пиковый уровень 97.6 %
     Скорость извлечения 2.7 X
     Качество трека 100.0 %
     CRC теста D234373A
     CRC копии D234373A
     Точное извлечение (достоверность 1)  [05CB9CB2]  (AR v2)
     Копирование... OK
Трек 12
     Имя файла C:\Users\Саша\Music\Раздачи\12. Sarah Brightman -  In The Air.wav
     Пиковый уровень 92.6 %
     Скорость извлечения 2.6 X
     Качество трека 100.0 %
     CRC теста FA168FA3
     CRC копии FA168FA3
     Точное извлечение (достоверность 1)  [74A6C7C0]  (AR v2)
     Копирование... OK
Трек 13
     Имя файла C:\Users\Саша\Music\Раздачи\13. Sarah Brightman feat.  Israel ''IZ'' Ka'ano'i Kamakawiwo'ole -  Hawaii '78.wav
     Пиковый уровень 96.6 %
     Скорость извлечения 2.4 X
     Качество трека 99.9 %
     CRC теста 42D5FE8F
     CRC копии 42D5FE8F
     Точное извлечение (достоверность 1)  [C786A19A]  (AR v2)
     Копирование... OK
Трек 14
     Имя файла C:\Users\Саша\Music\Раздачи\14. Sarah Brightman -  7th Heaven.wav
     Пиковый уровень 96.6 %
     Скорость извлечения 2.8 X
     Качество трека 100.0 %
     CRC теста C9EB3652
     CRC копии C9EB3652
     Точное извлечение (достоверность 1)  [BD4F440C]  (AR v2)
     Копирование... OK
Трек 15
     Имя файла C:\Users\Саша\Music\Раздачи\15. Sarah Brightman -  So Long Ago So Clear.wav
     Пиковый уровень 96.6 %
     Скорость извлечения 2.9 X
     Качество трека 100.0 %
     CRC теста 3B8F7F7B
     CRC копии 3B8F7F7B
     Точное извлечение (достоверность 1)  [6AA2902D]  (AR v2)
     Копирование... OK
Все треки извлечены точно
Ошибок не произошло
Конец отчёта
==== Контрольная сумма отчёта 26AF96994AB7464D08FE24E8441E33817CFC65B64D872CCA4544F291C90CDDA6 ====
Код: Выделить всё
REM GENRE Pop
REM DATE 2013
REM DISCID CA12BF0F
REM COMMENT "ExactAudioCopy v1.0b3"
CATALOG 0091037217738
PERFORMER "Sarah Brightman"
TITLE "Dreamchaser (Super Deluxe) [Simha, LLC - SB005SDX]"
FILE "01. Sarah Brightman -  Angel.wav" WAVE
  TRACK 01 AUDIO
    TITLE "Angel"
    PERFORMER "Sarah Brightman"
    ISRC GB2ME1200722
    INDEX 01 00:00:00
FILE "02. Sarah Brightman -  One Day Like This.wav" WAVE
  TRACK 02 AUDIO
    TITLE "One Day Like This"
    PERFORMER "Sarah Brightman"
    ISRC GB2ME1200723
    INDEX 01 00:00:00
FILE "03. Sarah Brightman -  Glosoli.wav" WAVE
  TRACK 03 AUDIO
    TITLE "Glosoli"
    PERFORMER "Sarah Brightman"
    ISRC GB2ME1200735
    INDEX 01 00:00:00
FILE "04. Sarah Brightman -  Lento E Largo From Symphony No.3. Op. 36 (Symphony Of Sorrowful Songs).wav" WAVE
  TRACK 04 AUDIO
    TITLE "Lento E Largo From Symphony No.3. Op. 36 (Symphony Of Sorrowful Songs)"
    PERFORMER "Sarah Brightman"
    ISRC GB2ME1200736
    INDEX 01 00:00:00
FILE "05. Sarah Brightman -  B 612.wav" WAVE
  TRACK 05 AUDIO
    TITLE "B 612"
    PERFORMER "Sarah Brightman"
    ISRC GB2ME1200729
    INDEX 01 00:00:00
FILE "06. Sarah Brightman -  Breathe Me.wav" WAVE
  TRACK 06 AUDIO
    TITLE "Breathe Me"
    PERFORMER "Sarah Brightman"
    ISRC GB2ME1200734
    INDEX 01 00:00:00
FILE "07. Sarah Brightman -  Ave Maria.wav" WAVE
  TRACK 07 AUDIO
    TITLE "Ave Maria"
    PERFORMER "Sarah Brightman"
    ISRC GB2ME1200731
    INDEX 01 00:00:00
FILE "08. Sarah Brightman -  Eperdu.wav" WAVE
  TRACK 08 AUDIO
    TITLE "Eperdu"
    PERFORMER "Sarah Brightman"
    ISRC GB2ME1200733
    INDEX 01 00:00:00
FILE "09. Sarah Brightman -  A Song For India.wav" WAVE
  TRACK 09 AUDIO
    TITLE "A Song For India"
    PERFORMER "Sarah Brightman"
    ISRC GB2ME1200739
    INDEX 01 00:00:00
FILE "10. Sarah Brightman -  Venus And Mars.wav" WAVE
  TRACK 10 AUDIO
    TITLE "Venus And Mars"
    PERFORMER "Sarah Brightman"
    ISRC GB2ME1200728
    INDEX 01 00:00:00
FILE "11. Sarah Brightman -  Closer.wav" WAVE
  TRACK 11 AUDIO
    TITLE "Closer"
    PERFORMER "Sarah Brightman"
    ISRC GB2ME1200732
    INDEX 01 00:00:00
FILE "12. Sarah Brightman -  In The Air.wav" WAVE
  TRACK 12 AUDIO
    TITLE "In The Air"
    PERFORMER "Sarah Brightman"
    ISRC GB2ME1200730
    INDEX 01 00:00:00
FILE "13. Sarah Brightman feat.  Israel ''IZ'' Ka'ano'i Kamakawiwo'ole -  Hawaii '78.wav" WAVE
  TRACK 13 AUDIO
    TITLE "Hawaii '78"
    PERFORMER "Sarah Brightman feat.  Israel 'IZ' Ka'ano'i Kamakawiwo'ole"
    ISRC GB2ME1200727
    INDEX 01 00:00:00
FILE "14. Sarah Brightman -  7th Heaven.wav" WAVE
  TRACK 14 AUDIO
    TITLE "7th Heaven"
    PERFORMER "Sarah Brightman"
    ISRC GB2ME1200737
    INDEX 01 00:00:00
FILE "15. Sarah Brightman -  So Long Ago So Clear.wav" WAVE
  TRACK 15 AUDIO
    TITLE "So Long Ago So Clear"
    PERFORMER "Sarah Brightman"
    ISRC GB2ME1200738
    INDEX 01 00:00:00
Правила, инструкции, FAQ!!!
Торрент  Добавлен [12 май 2020, 13:17] Скачать торрент
Скачать торрент
[ Размер 20.19 КБ / Просмотров 0 ]

Статус
Проверен 
 
Размер  467.66 МБ
Приватный: Нет (DHT включён)
.torrent скачан  0
Как залить торрент? | Как скачать Torrent? | Как смотреть и слушать онлайн?  
Гость
 


Вернуться в Зарубежная музыка

Кто сейчас на конференции

Сейчас этот форум просматривают: нет зарегистрированных пользователей и гости: 0

   Наша команда  Удалить cookies конференции • Часовой пояс: UTC + 3 часа

Пользовательское соглашение  |  Для правообладателей  | 

cron