VA - Летний марафон № 52 / Видеоклипы (Зарубежный хит) (2013) [H.264/1080p] WEBRip


Статистика раздачи
Размер: 1.11 ГБ | Добавлен: 11 авг 2013, 20:59 | Скачали: 1
Сидеров: 1  [0 байт/сек]    Личеров: 0  [0 байт/сек]

Сообщение Гость » 11 авг 2013, 20:59

VA - Летний марафон № 52 (Зарубежный хит) (2013) WEBRip

Русское название: Летний марафон № 52
Оригинальное название: Видеоклипы (Зарубежный хит)
Год выпуска: 2013
Жанр: Dance, Pop, Latin
Контейнер: MP4
Кол-во клипов: 10
Продолжительность: 00:34:51

Описание фильма:
Августовские новинки танцевальных хитов "new'' (10.08.2013)

Треклист:
1. Amna - La La Like It (Official Video) (00:03:11)
2. Diana Vickers - Music To Make Boys Cry (Official Video) (00:03:29)
3. Erika Jayne ft. Flo Rida - Get It Tonight (Official Video) (00:03:44)
4. Hashtag - H Glossa Toy Somatoe (Official Video) (00:03:24)
5. Jay Sean - Mars ft. Rick Ross (Official Video) (00:03:27)
6. Jessie J - It's My Party (Official Video) (00:03:51)
7. Juan Martinez & Javi Max ft. Roxen - Pierdo El Control (Official Video) (00:03:56)
8. New Kids On The Block - The Whisper (Official Video) (00:04:42)
9. Tal - A L'International (Official Video) (00:03:50)
10. Victoria Justice - Gold (Official Video) (00:03:14)

Видеокодек: MPEG-4 AVC/H.264
Битрейт видео: 5.176 ~ 2.954 kbps avg, 0.104 ~ 0.064 bit.pixel
Размер кадра: 1920:1080 (16:9), 23.976 ~ 25fps
Качество видео: WEBRip
Аудиокодек: AAC, 2 ch, stereo
Битрейт аудио: 192 Kbps avg
Общее
Полное имя : E:\VA - Летний марафон № 52 (Зарубежный хит)\Amna - La La Like It (Official Video).mp4
Формат : MPEG-4
Профиль формата : Base Media / Version 2
Идентификатор кодека : mp42
Размер файла : 119 Мбайт
Продолжительность : 3 м. 11 с.
Общий поток : 5202 Кбит/сек
Дата кодирования : UTC 2013-08-07 07:32:44
Дата пометки : UTC 2013-08-07 07:32:44
gsst : 0
gstd : 191865
gssd : B4A7DAD02MM1375963876536180
gshh : r4---led01s01.c.youtube.com

Видео
Идентификатор : 1
Формат : AVC
Формат/Информация : Advanced Video Codec
Профиль формата :
Параметр CABAC формата : Да
Параметр ReFrames формата : 1 кадр
Идентификатор кодека : avc1
Идентификатор кодека/Информация : Advanced Video Coding
Продолжительность : 3 м. 11 с.
Вид битрейта : Переменный
Битрейт : 5008 Кбит/сек
Максимальный битрейт : 7669 Кбит/сек
Ширина : 1920 пикселей
Высота : 1080 пикселей
Соотношение сторон : 16:9
Режим частоты кадров : Постоянный
Частота кадров : 25,000 кадров/сек
Цветовое пространство : YUV
Субдискретизация насыщенности : 4:2:0
Битовая глубина : 8 бит
Тип развёртки : Прогрессивная
Бит/(Пиксели*Кадры) : 0.097
Размер потока : 114 Мбайт (96%)
Дата пометки : UTC 2013-08-07 07:33:10

Аудио
Идентификатор : 2
Формат : AAC
Формат/Информация : Advanced Audio Codec
Профиль формата : LC
Идентификатор кодека : 40
Продолжительность : 3 м. 11 с.
Вид битрейта : Переменный
Битрейт : 192 Кбит/сек
Максимальный битрейт : 203 Кбит/сек
Каналы : 2 канала
Расположение каналов : Front: L R
Частота : 44,1 КГц
Метод сжатия : С потерями
Размер потока : 4,39 Мбайт (4%)
Заголовок : IsoMedia File Produced by Google, 5-11-2011
Дата кодирования : UTC 2013-08-07 07:33:03
Дата пометки : UTC 2013-08-07 07:33:10
Общее
Полное имя : E:\VA - Летний марафон № 52 (Зарубежный хит)\Diana Vickers - Music To Make Boys Cry (Official Video).mp4
Формат : MPEG-4
Профиль формата : Base Media / Version 2
Идентификатор кодека : mp42
Размер файла : 87,9 Мбайт
Продолжительность : 3 м. 29 с.
Общий поток : 3517 Кбит/сек
Дата кодирования : UTC 2013-08-02 14:25:30
Дата пометки : UTC 2013-08-02 14:25:30
gsst : 0
gstd : 209698
gssd : B4A7DDAC2HH1375683536189236
gshh : r2---sn-4g57kuek.c.youtube.com

Видео
Идентификатор : 1
Формат : AVC
Формат/Информация : Advanced Video Codec
Профиль формата :
Параметр CABAC формата : Да
Параметр ReFrames формата : 1 кадр
Идентификатор кодека : avc1
Идентификатор кодека/Информация : Advanced Video Coding
Продолжительность : 3 м. 29 с.
Вид битрейта : Переменный
Битрейт : 3323 Кбит/сек
Максимальный битрейт : 5928 Кбит/сек
Ширина : 1920 пикселей
Высота : 1080 пикселей
Соотношение сторон : 16:9
Режим частоты кадров : Постоянный
Частота кадров : 25,000 кадров/сек
Цветовое пространство : YUV
Субдискретизация насыщенности : 4:2:0
Битовая глубина : 8 бит
Тип развёртки : Прогрессивная
Бит/(Пиксели*Кадры) : 0.064
Размер потока : 83,0 Мбайт (94%)
Дата пометки : UTC 2013-08-02 14:25:33

Аудио
Идентификатор : 2
Формат : AAC
Формат/Информация : Advanced Audio Codec
Профиль формата : LC
Идентификатор кодека : 40
Продолжительность : 3 м. 29 с.
Вид битрейта : Переменный
Битрейт : 192 Кбит/сек
Максимальный битрейт : 203 Кбит/сек
Каналы : 2 канала
Расположение каналов : Front: L R
Частота : 44,1 КГц
Метод сжатия : С потерями
Размер потока : 4,80 Мбайт (5%)
Заголовок : IsoMedia File Produced by Google, 5-11-2011
Дата кодирования : UTC 2013-08-02 14:25:32
Дата пометки : UTC 2013-08-02 14:25:33
Общее
Полное имя : E:\VA - Летний марафон № 52 (Зарубежный хит)\Erika Jayne ft. Flo Rida - Get It Tonight (Official Video).mp4
Формат : MPEG-4
Профиль формата : Base Media / Version 2
Идентификатор кодека : mp42
Размер файла : 129 Мбайт
Продолжительность : 3 м. 44 с.
Общий поток : 4829 Кбит/сек
Дата кодирования : UTC 2013-04-30 23:15:27
Дата пометки : UTC 2013-04-30 23:15:27
gsst : 0
gstd : 225046
gssd : BADC23A41HH1368642379469075
gshh : r1---sn-n8v7ln7r.c.youtube.com

Видео
Идентификатор : 1
Формат : AVC
Формат/Информация : Advanced Video Codec
Профиль формата :
Параметр CABAC формата : Да
Параметр ReFrames формата : 1 кадр
Идентификатор кодека : avc1
Идентификатор кодека/Информация : Advanced Video Coding
Продолжительность : 3 м. 44 с.
Вид битрейта : Переменный
Битрейт : 4634 Кбит/сек
Максимальный битрейт : 9846 Кбит/сек
Ширина : 1920 пикселей
Высота : 1080 пикселей
Соотношение сторон : 16:9
Режим частоты кадров : Постоянный
Частота кадров : 23,976 кадра/сек
Цветовое пространство : YUV
Субдискретизация насыщенности : 4:2:0
Битовая глубина : 8 бит
Тип развёртки : Прогрессивная
Бит/(Пиксели*Кадры) : 0.093
Размер потока : 124 Мбайт (96%)
Дата пометки : UTC 2013-04-30 23:15:34

Аудио
Идентификатор : 2
Формат : AAC
Формат/Информация : Advanced Audio Codec
Профиль формата : LC
Идентификатор кодека : 40
Продолжительность : 3 м. 44 с.
Вид битрейта : Переменный
Битрейт : 192 Кбит/сек
Максимальный битрейт : 203 Кбит/сек
Каналы : 2 канала
Расположение каналов : Front: L R
Частота : 44,1 КГц
Метод сжатия : С потерями
Размер потока : 5,15 Мбайт (4%)
Заголовок : IsoMedia File Produced by Google, 5-11-2011
Дата кодирования : UTC 2013-04-30 23:15:32
Дата пометки : UTC 2013-04-30 23:15:34
Общее
Полное имя : E:\VA - Летний марафон № 52 (Зарубежный хит)\Hashtag - H Glossa Toy Somatoe (Official Video).mp4
Формат : MPEG-4
Профиль формата : Base Media / Version 2
Идентификатор кодека : mp42
Размер файла : 76,7 Мбайт
Продолжительность : 3 м. 24 с.
Общий поток : 3148 Кбит/сек
Дата кодирования : UTC 2013-07-21 09:23:58
Дата пометки : UTC 2013-07-21 09:23:58
gsst : 0
gstd : 204496
gssd : B4A7DD8E3HH1374495442092218
gshh : r3---sn-cg07luer.c.youtube.com

Видео
Идентификатор : 1
Формат : AVC
Формат/Информация : Advanced Video Codec
Профиль формата :
Параметр CABAC формата : Да
Параметр ReFrames формата : 1 кадр
Идентификатор кодека : avc1
Идентификатор кодека/Информация : Advanced Video Coding
Продолжительность : 3 м. 24 с.
Вид битрейта : Переменный
Битрейт : 2954 Кбит/сек
Максимальный битрейт : 8963 Кбит/сек
Ширина : 1920 пикселей
Высота : 1080 пикселей
Соотношение сторон : 16:9
Режим частоты кадров : Постоянный
Частота кадров : 25,000 кадров/сек
Цветовое пространство : YUV
Субдискретизация насыщенности : 4:2:0
Битовая глубина : 8 бит
Тип развёртки : Прогрессивная
Бит/(Пиксели*Кадры) : 0.057
Размер потока : 72,0 Мбайт (94%)
Дата пометки : UTC 2013-07-21 09:24:01

Аудио
Идентификатор : 2
Формат : AAC
Формат/Информация : Advanced Audio Codec
Профиль формата : LC
Идентификатор кодека : 40
Продолжительность : 3 м. 24 с.
Вид битрейта : Переменный
Битрейт : 192 Кбит/сек
Максимальный битрейт : 201 Кбит/сек
Каналы : 2 канала
Расположение каналов : Front: L R
Частота : 44,1 КГц
Метод сжатия : С потерями
Размер потока : 4,68 Мбайт (6%)
Заголовок : IsoMedia File Produced by Google, 5-11-2011
Дата кодирования : UTC 2013-07-21 09:24:00
Дата пометки : UTC 2013-07-21 09:24:01
Общее
Полное имя : E:\VA - Летний марафон № 52 (Зарубежный хит)\Jay Sean - Mars ft. Rick Ross (Official Video).mp4
Формат : MPEG-4
Профиль формата : Base Media / Version 2
Идентификатор кодека : mp42
Размер файла : 96,5 Мбайт
Продолжительность : 3 м. 27 с.
Общий поток : 3903 Кбит/сек
Дата кодирования : UTC 2013-07-28 19:15:40
Дата пометки : UTC 2013-07-28 19:15:40
gsst : 0
gstd : 207516
gssd : B4A7D0F82HH1375187832183693
gshh : r7---sn-5hn7snee.c.youtube.com

Видео
Идентификатор : 1
Формат : AVC
Формат/Информация : Advanced Video Codec
Профиль формата :
Параметр CABAC формата : Да
Параметр ReFrames формата : 1 кадр
Идентификатор кодека : avc1
Идентификатор кодека/Информация : Advanced Video Coding
Продолжительность : 3 м. 27 с.
Вид битрейта : Переменный
Битрейт : 3709 Кбит/сек
Максимальный битрейт : 15,7 Мбит/сек
Ширина : 1920 пикселей
Высота : 1080 пикселей
Соотношение сторон : 16:9
Режим частоты кадров : Постоянный
Частота кадров : 23,976 кадра/сек
Цветовое пространство : YUV
Субдискретизация насыщенности : 4:2:0
Битовая глубина : 8 бит
Тип развёртки : Прогрессивная
Бит/(Пиксели*Кадры) : 0.075
Размер потока : 91,7 Мбайт (95%)
Дата пометки : UTC 2013-07-28 19:15:47

Аудио
Идентификатор : 2
Формат : AAC
Формат/Информация : Advanced Audio Codec
Профиль формата : LC
Идентификатор кодека : 40
Продолжительность : 3 м. 27 с.
Вид битрейта : Переменный
Битрейт : 192 Кбит/сек
Максимальный битрейт : 202 Кбит/сек
Каналы : 2 канала
Расположение каналов : Front: L R
Частота : 44,1 КГц
Метод сжатия : С потерями
Размер потока : 4,75 Мбайт (5%)
Заголовок : IsoMedia File Produced by Google, 5-11-2011
Дата кодирования : UTC 2013-07-28 19:15:45
Дата пометки : UTC 2013-07-28 19:15:47
Общее
Полное имя : E:\VA - Летний марафон № 52 (Зарубежный хит)\Jessie J - It's My Party (Official Video).mp4
Формат : MPEG-4
Профиль формата : Base Media / Version 2
Идентификатор кодека : mp42
Размер файла : 104 Мбайт
Продолжительность : 3 м. 51 с.
Общий поток : 3778 Кбит/сек
Дата кодирования : UTC 2013-08-06 03:51:32
Дата пометки : UTC 2013-08-06 03:51:32
gsst : 0
gstd : 231966
gssd : BADC23AEAHH1375954082555064
gshh : r10---sn-n8v7lnes.c.youtube.com

Видео
Идентификатор : 1
Формат : AVC
Формат/Информация : Advanced Video Codec
Профиль формата :
Параметр CABAC формата : Да
Параметр ReFrames формата : 1 кадр
Идентификатор кодека : avc1
Идентификатор кодека/Информация : Advanced Video Coding
Продолжительность : 3 м. 51 с.
Вид битрейта : Переменный
Битрейт : 3584 Кбит/сек
Максимальный битрейт : 8863 Кбит/сек
Ширина : 1920 пикселей
Высота : 1080 пикселей
Соотношение сторон : 16:9
Режим частоты кадров : Постоянный
Частота кадров : 25,000 кадров/сек
Цветовое пространство : YUV
Субдискретизация насыщенности : 4:2:0
Битовая глубина : 8 бит
Тип развёртки : Прогрессивная
Бит/(Пиксели*Кадры) : 0.069
Размер потока : 99,0 Мбайт (95%)
Дата пометки : UTC 2013-08-06 03:51:37

Аудио
Идентификатор : 2
Формат : AAC
Формат/Информация : Advanced Audio Codec
Профиль формата : LC
Идентификатор кодека : 40
Продолжительность : 3 м. 51 с.
Вид битрейта : Переменный
Битрейт : 192 Кбит/сек
Максимальный битрейт : 203 Кбит/сек
Каналы : 2 канала
Расположение каналов : Front: L R
Частота : 44,1 КГц
Метод сжатия : С потерями
Размер потока : 5,31 Мбайт (5%)
Заголовок : IsoMedia File Produced by Google, 5-11-2011
Дата кодирования : UTC 2013-08-06 03:51:36
Дата пометки : UTC 2013-08-06 03:51:37
Общее
Полное имя : E:\VA - Летний марафон № 52 (Зарубежный хит)\Juan Martinez & Javi Max ft. Roxen - Pierdo El Control (Official Video).mp4
Формат : MPEG-4
Профиль формата : Base Media / Version 2
Идентификатор кодека : mp42
Размер файла : 117 Мбайт
Продолжительность : 3 м. 56 с.
Общий поток : 4149 Кбит/сек
Дата кодирования : UTC 2013-08-07 17:15:54
Дата пометки : UTC 2013-08-07 17:15:54
gsst : 0
gstd : 236586
gssd : B4A7DDA27HH1376042875568584
gshh : r7---sn-4g57kuel.c.youtube.com

Видео
Идентификатор : 1
Формат : AVC
Формат/Информация : Advanced Video Codec
Профиль формата :
Параметр CABAC формата : Да
Параметр ReFrames формата : 1 кадр
Идентификатор кодека : avc1
Идентификатор кодека/Информация : Advanced Video Coding
Продолжительность : 3 м. 56 с.
Вид битрейта : Переменный
Битрейт : 3955 Кбит/сек
Максимальный битрейт : 9300 Кбит/сек
Ширина : 1920 пикселей
Высота : 1080 пикселей
Соотношение сторон : 16:9
Режим частоты кадров : Постоянный
Частота кадров : 25,000 кадров/сек
Цветовое пространство : YUV
Субдискретизация насыщенности : 4:2:0
Битовая глубина : 8 бит
Тип развёртки : Прогрессивная
Бит/(Пиксели*Кадры) : 0.076
Размер потока : 111 Мбайт (95%)
Дата пометки : UTC 2013-08-07 17:18:13

Аудио
Идентификатор : 2
Формат : AAC
Формат/Информация : Advanced Audio Codec
Профиль формата : LC
Идентификатор кодека : 40
Продолжительность : 3 м. 56 с.
Вид битрейта : Переменный
Битрейт : 192 Кбит/сек
Максимальный битрейт : 201 Кбит/сек
Каналы : 2 канала
Расположение каналов : Front: L R
Частота : 44,1 КГц
Метод сжатия : С потерями
Размер потока : 5,41 Мбайт (5%)
Заголовок : IsoMedia File Produced by Google, 5-11-2011
Дата кодирования : UTC 2013-08-07 17:17:34
Дата пометки : UTC 2013-08-07 17:18:13
Общее
Полное имя : E:\VA - Летний марафон № 52 (Зарубежный хит)\New Kids On The Block - The Whisper (Official Video).mp4
Формат : MPEG-4
Профиль формата : Base Media / Version 2
Идентификатор кодека : mp42
Размер файла : 181 Мбайт
Продолжительность : 4 м. 42 с.
Общий поток : 5371 Кбит/сек
Дата кодирования : UTC 2013-07-31 16:33:12
Дата пометки : UTC 2013-07-31 16:33:12
gsst : 0
gstd : 282215
gssd : B4A7DDA83MH1375969127237115
gshh : r3---sn-4g57kue6.c.youtube.com

Видео
Идентификатор : 1
Формат : AVC
Формат/Информация : Advanced Video Codec
Профиль формата :
Параметр CABAC формата : Да
Параметр ReFrames формата : 1 кадр
Идентификатор кодека : avc1
Идентификатор кодека/Информация : Advanced Video Coding
Продолжительность : 4 м. 42 с.
Вид битрейта : Переменный
Битрейт : 5176 Кбит/сек
Максимальный битрейт : 14,9 Мбит/сек
Ширина : 1920 пикселей
Высота : 1080 пикселей
Соотношение сторон : 16:9
Режим частоты кадров : Постоянный
Частота кадров : 23,976 кадра/сек
Цветовое пространство : YUV
Субдискретизация насыщенности : 4:2:0
Битовая глубина : 8 бит
Тип развёртки : Прогрессивная
Бит/(Пиксели*Кадры) : 0.104
Размер потока : 174 Мбайт (96%)
Дата пометки : UTC 2013-07-31 16:33:24

Аудио
Идентификатор : 2
Формат : AAC
Формат/Информация : Advanced Audio Codec
Профиль формата : LC
Идентификатор кодека : 40
Продолжительность : 4 м. 42 с.
Вид битрейта : Переменный
Битрейт : 192 Кбит/сек
Максимальный битрейт : 203 Кбит/сек
Каналы : 2 канала
Расположение каналов : Front: L R
Частота : 44,1 КГц
Метод сжатия : С потерями
Размер потока : 6,46 Мбайт (4%)
Заголовок : IsoMedia File Produced by Google, 5-11-2011
Дата кодирования : UTC 2013-07-31 16:33:21
Дата пометки : UTC 2013-07-31 16:33:24
Общее
Полное имя : E:\VA - Летний марафон № 52 (Зарубежный хит)\Tal - A L'International (Official Video).mp4
Формат : MPEG-4
Профиль формата : Base Media / Version 2
Идентификатор кодека : mp42
Размер файла : 128 Мбайт
Продолжительность : 3 м. 50 с.
Общий поток : 4664 Кбит/сек
Дата кодирования : UTC 2013-08-07 15:47:59
Дата пометки : UTC 2013-08-07 15:47:59
gsst : 0
gstd : 230388
gssd : B4A7DDA25HH1375981989278725
gshh : r5---sn-4g57kuel.c.youtube.com

Видео
Идентификатор : 1
Формат : AVC
Формат/Информация : Advanced Video Codec
Профиль формата :
Параметр CABAC формата : Да
Параметр ReFrames формата : 1 кадр
Идентификатор кодека : avc1
Идентификатор кодека/Информация : Advanced Video Coding
Продолжительность : 3 м. 50 с.
Вид битрейта : Переменный
Битрейт : 4469 Кбит/сек
Максимальный битрейт : 9700 Кбит/сек
Ширина : 1920 пикселей
Высота : 1080 пикселей
Соотношение сторон : 16:9
Режим частоты кадров : Постоянный
Частота кадров : 25,000 кадров/сек
Цветовое пространство : YUV
Субдискретизация насыщенности : 4:2:0
Битовая глубина : 8 бит
Тип развёртки : Прогрессивная
Бит/(Пиксели*Кадры) : 0.086
Размер потока : 123 Мбайт (96%)
Дата пометки : UTC 2013-08-07 15:48:28

Аудио
Идентификатор : 2
Формат : AAC
Формат/Информация : Advanced Audio Codec
Профиль формата : LC
Идентификатор кодека : 40
Продолжительность : 3 м. 50 с.
Вид битрейта : Переменный
Битрейт : 192 Кбит/сек
Максимальный битрейт : 204 Кбит/сек
Каналы : 2 канала
Расположение каналов : Front: L R
Частота : 44,1 КГц
Метод сжатия : С потерями
Размер потока : 5,27 Мбайт (4%)
Заголовок : IsoMedia File Produced by Google, 5-11-2011
Дата кодирования : UTC 2013-08-07 15:48:21
Дата пометки : UTC 2013-08-07 15:48:28
Общее
Полное имя : E:\VA - Летний марафон № 52 (Зарубежный хит)\Victoria Justice - Gold (Official Video).mp4
Формат : MPEG-4
Профиль формата : Base Media / Version 2
Идентификатор кодека : mp42
Размер файла : 98,4 Мбайт
Продолжительность : 3 м. 14 с.
Общий поток : 4249 Кбит/сек
Дата кодирования : UTC 2013-07-09 20:04:21
Дата пометки : UTC 2013-07-09 20:04:21
gsst : 0
gstd : 194373
gssd : BADC23AAAHH1373647144509858
gshh : r10---sn-n8v7lnee.c.youtube.com

Видео
Идентификатор : 1
Формат : AVC
Формат/Информация : Advanced Video Codec
Профиль формата :
Параметр CABAC формата : Да
Параметр ReFrames формата : 1 кадр
Идентификатор кодека : avc1
Идентификатор кодека/Информация : Advanced Video Coding
Продолжительность : 3 м. 14 с.
Вид битрейта : Переменный
Битрейт : 4055 Кбит/сек
Максимальный битрейт : 7706 Кбит/сек
Ширина : 1920 пикселей
Высота : 1080 пикселей
Соотношение сторон : 16:9
Режим частоты кадров : Постоянный
Частота кадров : 23,976 кадра/сек
Цветовое пространство : YUV
Субдискретизация насыщенности : 4:2:0
Битовая глубина : 8 бит
Тип развёртки : Прогрессивная
Бит/(Пиксели*Кадры) : 0.082
Размер потока : 93,9 Мбайт (95%)
Дата пометки : UTC 2013-07-09 20:04:28

Аудио
Идентификатор : 2
Формат : AAC
Формат/Информация : Advanced Audio Codec
Профиль формата : LC
Идентификатор кодека : 40
Продолжительность : 3 м. 14 с.
Вид битрейта : Переменный
Битрейт : 192 Кбит/сек
Максимальный битрейт : 203 Кбит/сек
Каналы : 2 канала
Расположение каналов : Front: L R
Частота : 44,1 КГц
Метод сжатия : С потерями
Размер потока : 4,45 Мбайт (5%)
Заголовок : IsoMedia File Produced by Google, 5-11-2011
Дата кодирования : UTC 2013-07-09 20:04:26
Дата пометки : UTC 2013-07-09 20:04:28
Скриншоты:


Хорошего настроения и


Время раздачи: 24/7 - до 5 скачавших, далее по возможности.
Правила, инструкции, FAQ!!!
Торрент  Добавлен [11 авг 2013, 20:59] Скачать торрент
Скачать торрент
[ Размер 12.91 КБ / Просмотров 24 ]

Статус
Проверен 
 
Размер  1.11 ГБ
Приватный: Нет (DHT включён)
.torrent скачан  1
Как залить торрент? | Как скачать Torrent? | Как смотреть и слушать онлайн?  
Гость
 


Вернуться в Клипы (HD-Video)

Кто сейчас на конференции

Сейчас этот форум просматривают: нет зарегистрированных пользователей и гости: 0

   Наша команда  Удалить cookies конференции • Часовой пояс: UTC + 3 часа

Пользовательское соглашение  |  Для правообладателей  | 

cron