Творческая мастерская - Монтессори-метод: группы от 8 месяцев до 3 лет (Игорь Пелинский) [2009, Раннее развитие, Видеоурок, DVDRip, RUS]


Статистика раздачи
Размер: 642.05 МБ | Добавлен: 20 сен 2014, 00:07 | Скачали: 4
Сидеров: 76  [0 байт/сек]    Личеров: 17  [0 байт/сек]

Сообщение Гость » 20 сен 2014, 00:07

Творческая мастерская - Монтессори-метод: группы от 8 месяцев до 3 лет

Страна: Россия
Издатель: SovaFilm
Режиссер: Игорь Пелинский
Тематика: Раннее развитие
Тип раздаваемого материала: Видеоурок
Продолжительность: 00:51:41
Год выпуска: 2009

Язык: Русский
Перевод: Не требуется

Описание:
Уважаемые родители!
Если вашему малышу исполнилось 8 месяцев - пора уже начинать проводить с ним первые творческие занятия.
Вы спросите: «Ну какое может быть творчество у таких крох?»
Представьте себе – может быть. Крохи, как вы сами убедитесь, могут очень многое.
Важно научить их этому, помочь проявиться талантам.
Творческие занятия в монтессори-группах направлены на обучение сразу нескольким техникам:
рисования (красками, пластилином, карандашами), лепки (из соленого теста), конструирования (аппликации, резанию).
Через творчество малыш самовыражается, экспериментирует, открывает для себя новое.
Всё это – части непрерывного процесса познания окружающего мира.

Качество: DVDRip
Формат: AVI
Видео кодек: XviD
Аудио кодек: MP3
Видео: MPEG-4 Visual 720х544 (4:3) 1600 kbps 25.000 fps
Аудио: MPEG Audio V1 L3 128 Kbps 48.0 KHz 2 ch
Код: Выделить всё
General
Complete name                    : D:\Творческая мастерская - Монтессори-метод (2009).avi
Format                           : AVI
Format/Info                      : Audio Video Interleave
File size                        : 642 MiB
Duration                         : 51mn 41s
Overall bit rate                 : 1 737 Kbps
Writing application              : VirtualDubMod 1.5.10.2 (build 2540/release)
Writing library                  : VirtualDubMod build 2540/release

Video
ID                               : 0
Format                           : MPEG-4 Visual
Format profile                   : Advanced Simple@L5
Format settings, BVOP            : No
Format settings, QPel            : No
Format settings, GMC             : No warppoints
Format settings, Matrix          : Default (H.263)
Codec ID                         : XVID
Codec ID/Hint                    : XviD
Duration                         : 51mn 41s
Bit rate                         : 1 599 Kbps
Width                            : 720 pixels
Height                           : 544 pixels
Display aspect ratio             : 4:3
Frame rate                       : 25.000 fps
Color space                      : YUV
Chroma subsampling               : 4:2:0
Bit depth                        : 8 bits
Scan type                        : Progressive
Compression mode                 : Lossy
Bits/(Pixel*Frame)               : 0.163
Stream size                      : 591 MiB (92%)
Writing library                  : XviD 1.2.1 (UTC 2008-12-04)

Audio
ID                               : 1
Format                           : MPEG Audio
Format version                   : Version 1
Format profile                   : Layer 3
Codec ID                         : 55
Codec ID/Hint                    : MP3
Duration                         : 51mn 41s
Bit rate mode                    : Constant
Bit rate                         : 128 Kbps
Channel(s)                       : 2 channels
Sampling rate                    : 48.0 KHz
Compression mode                 : Lossy
Stream size                      : 47.3 MiB (7%)
Alignment                        : Aligned on interleaves
Interleave, duration             : 40 ms (1.00 video frame)
Interleave, preload duration     : 504 ms
Writing library                  : LAME3.98r
Encoding settings                : -m s -V 4 -q 2 -lowpass 17 -b 128
Правила, инструкции, FAQ!!!
Торрент  Добавлен [20 сен 2014, 00:07] Скачать торрент
Скачать торрент
[ Размер 13.2 КБ / Просмотров 25 ]

Статус
Проверен 
 
Размер  642.05 МБ
Приватный: Нет (DHT включён)
.torrent скачан  4
Как залить торрент? | Как скачать Torrent? | Как смотреть и слушать онлайн?  
Гость
 


Вернуться в Обучающие издания для детей

Кто сейчас на конференции

Сейчас этот форум просматривают: нет зарегистрированных пользователей и гости: 0

   Наша команда  Удалить cookies конференции • Часовой пояс: UTC + 3 часа

Пользовательское соглашение  |  Для правообладателей  | 

cron