Шишкина школа. Музыка [2010, Дошкольное образование, SATRip, RUS] (Видеоурок)


Статистика раздачи
Размер: 5.38 ГБ | Добавлен: 28 янв 2015, 00:07 | Скачали: 33
Сидеров: 585  [0 байт/сек]    Личеров: 28  [0 байт/сек]

Сообщение Гость » 28 янв 2015, 00:07

Шишкина школа. Музыка

Страна: Россия
Тип раздаваемого материала: Видеоурок
Продолжительность: 08:43:08
Год выпуска: 2010

Язык: Русский
Перевод: Отсутствует

Описание: Цикл образовательных программ для детей дошкольного возраста.
Кто-то учит английский, кто-то французский, кто-то немецкий... А в Шишкиной школе малышей обучают языку музыки! Да, да, именно так! Учитель Тимур Мажорыч уверен: чтобы научиться понимать этот язык, надо многое узнать о музыкальных жанрах, об инструментах и композиторах. Эти знания — своего рода ключ в прекрасный мир звуков, где каждый может почувствовать себя немного композитором.

Доп. информация: Видеоуроки музыки для детей могут быть использованы не только для семейного просмотра, но и для показа на занятиях в дошкольных учреждениях.

Качество: SATRip
Формат: AVI
Видео кодек: XviD
Аудио кодек: MP3
Видео: XviD, 720x544, (4:3), ~1360kbps avg, 0.14 bit/pixel, 25 fps
Аудио: 48.100 kHz, MPEG Layer 3, 2 ch, 106.00 kbps avg
General
Complete name: F:\Детям\Передачи\ТК Союз\Шишкин Лес\Шишкина Школа\Музыка\01. Звуки.avi
Format: AVI
Format/Info: Audio Video Interleave
File size: 75.0 MiB
Duration: 7mn 26s
Overall bit rate mode: Variable
Overall bit rate: 1 409 Kbps
Writing application: VirtualDubMod 1.5.4.1 (build 2178/release)
Writing library: VirtualDubMod build 2178/release

Video
ID : 0
Format: MPEG-4 Visual
Format settings, BVOP: 1
Format settings, QPel: No
Format settings, GMC: No warppoints
Format settings, Matrix: Default (H.263)
Muxing mode: Packed bitstream
Codec ID: DX50
Codec ID/Hint: DivX 5
Duration: 7mn 26s
Bit rate: 1 293 Kbps
Width: 720 pixels
Height: 544 pixels
Display aspect ratio: 4:3
Frame rate: 25.000 fps
Color space: YUV
Chroma subsampling: 4:2:0
Bit depth: 8 bits
Scan type: Progressive
Compression mode: Lossy
Bits/(Pixel*Frame): 0.132
Stream size: 68.8 MiB (92%)
Writing library: DivX 6.8.5 (UTC 2009-08-20)

Audio
ID : 1
Format: MPEG Audio
Format version: Version 1
Format profile: Layer 3
Mode: Joint stereo
Mode extension: MS Stereo
Codec ID: 55
Codec ID/Hint: MP3
Duration: 7mn 26s
Bit rate mode: Variable
Bit rate: 104 Kbps
Channel count: 2 channels
Sampling rate: 48.0 KHz
Compression mode: Lossy
Stream size: 5.53 MiB (7%)
Alignment: Aligned on interleaves
Interleave, duration: 24 ms (0.60 video frame)
Interleave, preload duration: 535 ms
Правила, инструкции, FAQ!!!
Торрент  Добавлен [28 янв 2015, 00:07] Скачать торрент
Скачать торрент
[ Размер 19.66 КБ / Просмотров 190 ]

Статус
Проверен 
 
Размер  5.38 ГБ
Приватный: Нет (DHT включён)
.torrent скачан  33
Как залить торрент? | Как скачать Torrent? | Как смотреть и слушать онлайн?  
Гость
 


Вернуться в Обучающие издания для детей

Кто сейчас на конференции

Сейчас этот форум просматривают: нет зарегистрированных пользователей и гости: 0

   Наша команда  Удалить cookies конференции • Часовой пояс: UTC + 3 часа

Пользовательское соглашение  |  Для правообладателей  | 

croncron