Сборник мультфильмов Эдуарда Назарова (Бегемотик, Жил-был Пес, Мартынко, Охота, Принцесса и Людоед...) (1973-1987) DVD5


Статистика раздачи
Размер: 3.31 ГБ | Добавлен: 17 дек 2014, 20:27 | Скачали: 2
Сидеров: 129  [0 байт/сек]    Личеров: 13  [0 байт/сек]

Сообщение Гость » 17 дек 2014, 20:27

Год: 1973-1987
Страна: СССР
Жанр: мультипликация
Продолжительность: 01:01:00
Субтитры: нет и быть не может, см. допиформацию
Перевод: не требуется
Режиссер: Эдуард Назаров

Описание: Это диск, который принес, показывал и комментировал сам Назаров в рамках проекта "Анимация на Страстном" в театральном центре На Страстном. Откуда взял диск даже не спрашивайте )). По этим же причинам отсутствует обложка, поэтому картинку взял другую.
В сборнике мультфильмы, которые Назаров делал как режиссер.
В мультфильме "Равновесие страха" наблюдается легкий рассинхрон звука, извините, такой оригинал.

Качество: DVD5 (без реставрации)
Формат: DVD Video
Видео кодек: MPEG2
Аудио кодек: PCM
Видео: PAL 4:3 (720x576) VBR ~6000kbps
Аудио: Russian (LinearPCM, 2 ch, 1536kbps)

Этот сборник не издавался никогда, поскольку делался строго для показа на проекте "Анимация на Страстном". По сути просто болванка с мультиками
#777Бегемотик - 1975 г.
Описание: Об одиноком Бегемотике, который нашел друга.
Общее
Полное имя : Назаров анимация DVD\VIDEO_TS\VTS_02_1.VOB
Формат : MPEG-PS
Размер файла : 299 Мбайт
Продолжительность : 5 м. 26 с.
Режим общего битрейта : Переменный
Общий поток : 7686 Кбит/сек

Видео
Идентификатор : 224 (0xE0)
Формат : MPEG Video
Версия формата : Version 2
Профиль формата : Main@Main
Параметр BVOP формата : Да
Параметр матрицы формата : Выборочная
Параметр GOP формата : M=3, N=12
Продолжительность : 5 м. 26 с.
Вид битрейта : Переменный
Битрейт : 6000 Кбит/сек
Ширина : 720 пикселей
Высота : 576 пикселей
Соотношение сторон : 4:3
Частота кадров : 25,000 кадров/сек
Стандарт вещания : PAL
Цветовое пространство : YUV
Субдискретизация насыщенности : 4:2:0
Битовая глубина : 8 бит
Тип развёртки : Чересстрочная
Порядок развёртки : Верхнее поле первое
Метод сжатия : С потерями
Бит/(Пиксели*Кадры) : 0.579
Временной код первого кадра : 00:00:00:00
Оригинал временного кода : Group of pictures header
Размер потока : 233 Мбайт (78%)

Аудио
Идентификатор : 189 (0xBD)-160 (0xA0)
Формат : PCM
Параметр Endianness формата : Big
Параметр Sign формата : Signed
Режим смешивания : DVD-Video
Продолжительность : 5 м. 26 с.
Вид битрейта : Постоянный
Битрейт : 1536 Кбит/сек
Каналы : 2 канала
Частота : 48,0 КГц
Битовая глубина : 16 бит
Задержка видео : -80 мс.
Размер потока : 59,8 Мбайт (20%)

Меню
Скриншоты:


#777Жил-был Пес - 1982 г.
Описание: Жил-был пёс. Верно служил, но выгнали его по старости. И решил он повеситься, да повстречал в лесу такого же старого волка…
Общее
Полное имя : Назаров анимация DVD\VIDEO_TS\VTS_05_1.VOB
Формат : MPEG-PS
Размер файла : 550 Мбайт
Продолжительность : 10 м.
Режим общего битрейта : Переменный
Общий поток : 7686 Кбит/сек

Видео
Идентификатор : 224 (0xE0)
Формат : MPEG Video
Версия формата : Version 2
Профиль формата : Main@Main
Параметр BVOP формата : Да
Параметр матрицы формата : Выборочная
Параметр GOP формата : M=3, N=12
Продолжительность : 10 м.
Вид битрейта : Переменный
Битрейт : 6000 Кбит/сек
Ширина : 720 пикселей
Высота : 576 пикселей
Соотношение сторон : 4:3
Частота кадров : 25,000 кадров/сек
Стандарт вещания : PAL
Цветовое пространство : YUV
Субдискретизация насыщенности : 4:2:0
Битовая глубина : 8 бит
Тип развёртки : Чересстрочная
Порядок развёртки : Верхнее поле первое
Метод сжатия : С потерями
Бит/(Пиксели*Кадры) : 0.579
Временной код первого кадра : 00:00:00:00
Оригинал временного кода : Group of pictures header
Размер потока : 429 Мбайт (78%)

Аудио
Идентификатор : 189 (0xBD)-160 (0xA0)
Формат : PCM
Параметр Endianness формата : Big
Параметр Sign формата : Signed
Режим смешивания : DVD-Video
Продолжительность : 10 м.
Вид битрейта : Постоянный
Битрейт : 1536 Кбит/сек
Каналы : 2 канала
Частота : 48,0 КГц
Битовая глубина : 16 бит
Задержка видео : -80 мс.
Размер потока : 110 Мбайт (20%)

Меню
Скриншоты:


#777Мартынко - 1987 г.
Описание: Мартынко находясь на гауптвахте нашёл колоду волшебных карт, с помощью которой смог запросто обыграть любого! Он сделал быструю карьеру до таможенного министра, обирающего всех иностранцев до нитки прямо при пересечении границы. Однако неразделённые чувства принцессы привели к тому, что его карьере пришёл конец, а его бросили в лесу. Наевшись чудесных яблок, он разрабатывает план мести.
Общее
Полное имя : Назаров анимация DVD\VIDEO_TS\VTS_08_1.VOB
Формат : MPEG-PS
Размер файла : 578 Мбайт
Продолжительность : 10 м.
Режим общего битрейта : Переменный
Общий поток : 7679 Кбит/сек

Видео
Идентификатор : 224 (0xE0)
Формат : MPEG Video
Версия формата : Version 2
Профиль формата : Main@Main
Параметр BVOP формата : Да
Параметр матрицы формата : Выборочная
Параметр GOP формата : M=3, N=12
Продолжительность : 10 м.
Вид битрейта : Переменный
Битрейт : 6000 Кбит/сек
Ширина : 720 пикселей
Высота : 576 пикселей
Соотношение сторон : 4:3
Частота кадров : 25,000 кадров/сек
Стандарт вещания : PAL
Цветовое пространство : YUV
Субдискретизация насыщенности : 4:2:0
Битовая глубина : 8 бит
Тип развёртки : Чересстрочная
Порядок развёртки : Верхнее поле первое
Метод сжатия : С потерями
Бит/(Пиксели*Кадры) : 0.579
Временной код первого кадра : 00:00:00:00
Оригинал временного кода : Group of pictures header
Размер потока : 450 Мбайт (78%)

Аудио
Идентификатор : 189 (0xBD)-160 (0xA0)
Формат : PCM
Параметр Endianness формата : Big
Параметр Sign формата : Signed
Режим смешивания : DVD-Video
Продолжительность : 10 м.
Вид битрейта : Постоянный
Битрейт : 1536 Кбит/сек
Каналы : 2 канала
Частота : 48,0 КГц
Битовая глубина : 16 бит
Задержка видео : -80 мс.
Размер потока : 116 Мбайт (20%)

Меню
Скриншоты:


#777Охота - 1979 г.
Описание: Мальчик заходит в охотничий магазин, рассматривает трофеи и представляет себе, что он в африканской саванне. Там он встречает настоящего охотника.
Общее
Полное имя : Назаров анимация DVD\VIDEO_TS\VTS_04_1.VOB
Формат : MPEG-PS
Размер файла : 533 Мбайт
Продолжительность : 9 м. 42 с.
Режим общего битрейта : Переменный
Общий поток : 7678 Кбит/сек

Видео
Идентификатор : 224 (0xE0)
Формат : MPEG Video
Версия формата : Version 2
Профиль формата : Main@Main
Параметр BVOP формата : Да
Параметр матрицы формата : Выборочная
Параметр GOP формата : M=3, N=12
Продолжительность : 9 м. 41 с.
Вид битрейта : Переменный
Битрейт : 6000 Кбит/сек
Ширина : 720 пикселей
Высота : 576 пикселей
Соотношение сторон : 4:3
Частота кадров : 25,000 кадров/сек
Стандарт вещания : PAL
Цветовое пространство : YUV
Субдискретизация насыщенности : 4:2:0
Битовая глубина : 8 бит
Тип развёртки : Чересстрочная
Порядок развёртки : Верхнее поле первое
Метод сжатия : С потерями
Бит/(Пиксели*Кадры) : 0.579
Временной код первого кадра : 00:00:00:00
Оригинал временного кода : Group of pictures header
Размер потока : 415 Мбайт (78%)

Аудио
Идентификатор : 189 (0xBD)-160 (0xA0)
Формат : PCM
Параметр Endianness формата : Big
Параметр Sign формата : Signed
Режим смешивания : DVD-Video
Продолжительность : 9 м. 42 с.
Вид битрейта : Постоянный
Битрейт : 1536 Кбит/сек
Каналы : 2 канала
Частота : 48,0 КГц
Битовая глубина : 16 бит
Задержка видео : -80 мс.
Размер потока : 107 Мбайт (20%)

Меню
Скриншоты:


#777Принцесса и Людоед - 1977 г.
Описание: Музыкальный фильм о «прекрасной-ужасной» принцессе и «ужасном-прекрасном» людоеде.
Общее
Полное имя : Назаров анимация DVD\VIDEO_TS\VTS_03_1.VOB
Формат : MPEG-PS
Размер файла : 276 Мбайт
Продолжительность : 5 м. 1 с.
Режим общего битрейта : Переменный
Общий поток : 7670 Кбит/сек

Видео
Идентификатор : 224 (0xE0)
Формат : MPEG Video
Версия формата : Version 2
Профиль формата : Main@Main
Параметр BVOP формата : Да
Параметр матрицы формата : Выборочная
Параметр GOP формата : M=3, N=12
Продолжительность : 5 м. 0 с.
Вид битрейта : Переменный
Битрейт : 6000 Кбит/сек
Ширина : 720 пикселей
Высота : 576 пикселей
Соотношение сторон : 4:3
Частота кадров : 25,000 кадров/сек
Стандарт вещания : PAL
Цветовое пространство : YUV
Субдискретизация насыщенности : 4:2:0
Битовая глубина : 8 бит
Тип развёртки : Чересстрочная
Порядок развёртки : Верхнее поле первое
Метод сжатия : С потерями
Бит/(Пиксели*Кадры) : 0.579
Временной код первого кадра : 00:00:00:00
Оригинал временного кода : Group of pictures header
Размер потока : 214 Мбайт (78%)

Аудио
Идентификатор : 189 (0xBD)-160 (0xA0)
Формат : PCM
Параметр Endianness формата : Big
Параметр Sign формата : Signed
Режим смешивания : DVD-Video
Продолжительность : 5 м. 1 с.
Вид битрейта : Постоянный
Битрейт : 1536 Кбит/сек
Каналы : 2 канала
Частота : 48,0 КГц
Битовая глубина : 16 бит
Задержка видео : -80 мс.
Размер потока : 55,2 Мбайт (20%)

Меню

#777Про Сидорова Вову - 1985 г.
Описание: В основу мультфильма положено сатирическое стихотворение Э. Успенского, высмеивающее родителей, которые в своей слепой любви доходят до абсурда и тем самым калечат ребенка, воспитывая его неприспособленным к нормальной трудовой жизни, службе в армии.
Общее
Полное имя : Назаров анимация DVD\VIDEO_TS\VTS_07_1.VOB
Формат : MPEG-PS
Размер файла : 546 Мбайт
Продолжительность : 9 м. 59 с.
Режим общего битрейта : Переменный
Общий поток : 7645 Кбит/сек

Видео
Идентификатор : 224 (0xE0)
Формат : MPEG Video
Версия формата : Version 2
Профиль формата : Main@Main
Параметр BVOP формата : Да
Параметр матрицы формата : Выборочная
Параметр GOP формата : M=3, N=12
Продолжительность : 9 м. 58 с.
Вид битрейта : Переменный
Битрейт : 6000 Кбит/сек
Ширина : 720 пикселей
Высота : 576 пикселей
Соотношение сторон : 4:3
Частота кадров : 25,000 кадров/сек
Стандарт вещания : PAL
Цветовое пространство : YUV
Субдискретизация насыщенности : 4:2:0
Битовая глубина : 8 бит
Тип развёртки : Чересстрочная
Порядок развёртки : Верхнее поле первое
Метод сжатия : С потерями
Бит/(Пиксели*Кадры) : 0.579
Временной код первого кадра : 00:00:00:00
Оригинал временного кода : Group of pictures header
Размер потока : 425 Мбайт (78%)

Аудио
Идентификатор : 189 (0xBD)-160 (0xA0)
Формат : PCM
Параметр Endianness формата : Big
Параметр Sign формата : Signed
Режим смешивания : DVD-Video
Продолжительность : 9 м. 59 с.
Вид битрейта : Постоянный
Битрейт : 1536 Кбит/сек
Каналы : 2 канала
Частота : 48,0 КГц
Битовая глубина : 16 бит
Задержка видео : -80 мс.
Размер потока : 110 Мбайт (20%)

Меню

#777Путешествие Муравья - 1983 г.
Описание: В основу фильма положена сказка В. Бианки «Как муравьишка домой спешил». В нем рассказывается о злоключениях хвастливого муравьишки, унесенного ветром в лес, и о том, как гусеница, кузнечик, водомер и майский жук помогли ему до захода солнца попасть домой.
Общее
Полное имя : Назаров анимация DVD\VIDEO_TS\VTS_06_1.VOB
Формат : MPEG-PS
Размер файла : 502 Мбайт
Продолжительность : 9 м. 8 с.
Режим общего битрейта : Переменный
Общий поток : 7681 Кбит/сек

Видео
Идентификатор : 224 (0xE0)
Формат : MPEG Video
Версия формата : Version 2
Профиль формата : Main@Main
Параметр BVOP формата : Да
Параметр матрицы формата : Выборочная
Параметр GOP формата : M=3, N=12
Продолжительность : 9 м. 7 с.
Вид битрейта : Переменный
Битрейт : 6000 Кбит/сек
Ширина : 720 пикселей
Высота : 576 пикселей
Соотношение сторон : 4:3
Частота кадров : 25,000 кадров/сек
Стандарт вещания : PAL
Цветовое пространство : YUV
Субдискретизация насыщенности : 4:2:0
Битовая глубина : 8 бит
Тип развёртки : Чересстрочная
Порядок развёртки : Верхнее поле первое
Метод сжатия : С потерями
Бит/(Пиксели*Кадры) : 0.579
Временной код первого кадра : 00:00:00:00
Оригинал временного кода : Group of pictures header
Размер потока : 391 Мбайт (78%)

Аудио
Идентификатор : 189 (0xBD)-160 (0xA0)
Формат : PCM
Параметр Endianness формата : Big
Параметр Sign формата : Signed
Режим смешивания : DVD-Video
Продолжительность : 9 м. 8 с.
Вид битрейта : Постоянный
Битрейт : 1536 Кбит/сек
Каналы : 2 канала
Частота : 48,0 КГц
Битовая глубина : 16 бит
Задержка видео : -80 мс.
Размер потока : 100 Мбайт (20%)

Меню

#777Равновесие страха - 1973 г.
Описание: История наращивания военной мощи между двумя соседями, которая привела к гибели Земли.
Общее
Полное имя : Назаров анимация DVD\VIDEO_TS\VTS_01_1.VOB
Формат : MPEG-PS
Размер файла : 108 Мбайт
Продолжительность : 1 м. 59 с.
Режим общего битрейта : Переменный
Общий поток : 7575 Кбит/сек

Видео
Идентификатор : 224 (0xE0)
Формат : MPEG Video
Версия формата : Version 2
Профиль формата : Main@Main
Параметр BVOP формата : Да
Параметр матрицы формата : Выборочная
Параметр GOP формата : M=3, N=12
Продолжительность : 1 м. 57 с.
Вид битрейта : Переменный
Битрейт : 5889 Кбит/сек
Максимальный битрейт : 6000 Кбит/сек
Ширина : 720 пикселей
Высота : 576 пикселей
Соотношение сторон : 4:3
Частота кадров : 25,000 кадров/сек
Стандарт вещания : PAL
Цветовое пространство : YUV
Субдискретизация насыщенности : 4:2:0
Битовая глубина : 8 бит
Тип развёртки : Чересстрочная
Порядок развёртки : Верхнее поле первое
Метод сжатия : С потерями
Бит/(Пиксели*Кадры) : 0.568
Временной код первого кадра : 00:00:00:00
Оригинал временного кода : Group of pictures header
Размер потока : 82,5 Мбайт (76%)

Аудио
Идентификатор : 189 (0xBD)-160 (0xA0)
Формат : PCM
Параметр Endianness формата : Big
Параметр Sign формата : Signed
Режим смешивания : DVD-Video
Продолжительность : 1 м. 59 с.
Вид битрейта : Постоянный
Битрейт : 1536 Кбит/сек
Каналы : 2 канала
Частота : 48,0 КГц
Битовая глубина : 16 бит
Задержка видео : -80 мс.
Размер потока : 21,9 Мбайт (20%)

Меню
Скриншоты:

Субтитры: нет
Title: Назаров анимация DVD
Size: 3.31 Gb ( 3 474 094,00 KBytes ) - DVD-5
Enabled regions: 1, 2, 3, 4, 5, 6, 7, 8

VTS_01 :
Play Length: 00:01:59
Video: PAL 4:3 (720x576) VBR
Audio:
Not specified (LinearPCM, 2 ch)

VTS_02 :
Play Length: 00:05:26
Video: PAL 4:3 (720x576) VBR
Audio:
Not specified (LinearPCM, 2 ch)

VTS_03 :
Play Length: 00:05:01
Video: PAL 4:3 (720x576) VBR
Audio:
Not specified (LinearPCM, 2 ch)

VTS_04 :
Play Length: 00:09:42
Video: PAL 4:3 (720x576) VBR
Audio:
Not specified (LinearPCM, 2 ch)

VTS_05 :
Play Length: 00:09:58
Video: PAL 4:3 (720x576) VBR
Audio:
Not specified (LinearPCM, 2 ch)

VTS_06 :
Play Length: 00:09:08
Video: PAL 4:3 (720x576) VBR
Audio:
Not specified (LinearPCM, 2 ch)

VTS_07 :
Play Length: 00:09:57
Video: PAL 4:3 (720x576) VBR
Audio:
Not specified (LinearPCM, 2 ch)

VTS_08 :
Play Length: 00:10:28
Video: PAL 4:3 (720x576) VBR
Audio:
Not specified (LinearPCM, 2 ch)
Скриншоты:

Правила, инструкции, FAQ!!!
Торрент  Добавлен [17 дек 2014, 20:27] Скачать торрент
Скачать торрент
[ Размер 18.98 КБ / Просмотров 43 ]

Статус
Проверен 
 
Размер  3.31 ГБ
Приватный: Нет (DHT включён)
.torrent скачан  2
Как залить торрент? | Как скачать Torrent? | Как смотреть и слушать онлайн?  
Гость
 


Вернуться в Отечественные мультфильмы (DVD Video)

Кто сейчас на конференции

Сейчас этот форум просматривают: нет зарегистрированных пользователей и гости: 0

   Наша команда  Удалить cookies конференции • Часовой пояс: UTC + 3 часа

Пользовательское соглашение  |  Для правообладателей  | 

croncron