Сборник клипов (2013) HDTVRip [1080p]


Статистика раздачи
Размер: 5.88 ГБ | Добавлен: 06 янв 2014, 10:38 | Скачали: 3
Сидеров: 3  [0 байт/сек]    Личеров: 4  [0 байт/сек]

Сообщение RG Rutorka » 06 янв 2014, 10:38

Сборник клипов (2013) HDTVRip [1080p]

Год выпуска: 2013
Жанр: Pop
Продолжительность: 00:45:18

Описание: Сборник клипов Хиты русской эстрады.

Треклист:

1.Bahh Tee и Руки Вверх - Крылья
2.Алсу - Нет тебя дороже
3.Анжелика Варум - Сумасшедшая
4.Виа Гра - Обмани но останься
5.Виагра - Перемирие
6.Горячий Шоколад - Две Недели Рая
7.Зебра - Андрюша
8.Лавика - Вечный Рай
9. Буланова и Константин Костомаров - С этого дня
10.Татьяна Котова - Признание
11.Эрика - С первого взгляда
12.Ярослава - Это любовь

Качество видео: HDTVRip [1080p]
Видеокодек: MPEG-4 AVC/H.264
Битрейт видео: ~19,9 Мбит/с
Размер кадра: 1920x1080 (16:9), 25,000 кадров/с
Аудиокодек: AAC, 2 ch, stereo
Битрейт аудио: 436- 317 Кбит/с
Общее
Полное имя : Clip\Bahh Tee и Руки Вверх - Крылья.mp4
Формат : MPEG-4
Профиль формата : Base Media / Version 2
Идентификатор кодека : mp42
Размер файла : 562 Мбайт
Продолжительность : 3 м. 53 с.
Режим общего битрейта : Переменный
Общий поток : 20,2 Мбит/сек
Дата кодирования : UTC 2013-10-17 12:34:02
Дата пометки : UTC 2013-10-17 12:34:02
©TIM : 00:00:00:00
©TSC : 25
©TSZ : 1

Видео
Идентификатор : 1
Формат : AVC
Формат/Информация : Advanced Video Codec
Профиль формата :
Параметр CABAC формата : Да
Параметр ReFrames формата : 3 кадра
Идентификатор кодека : avc1
Идентификатор кодека/Информация : Advanced Video Coding
Продолжительность : 3 м. 53 с.
Битрейт : 19,9 Мбит/сек
Ширина : 1920 пикселей
Высота : 1080 пикселей
Соотношение сторон : 16:9
Режим частоты кадров : Постоянный
Частота кадров : 25,000 кадров/сек
Стандарт вещания : PAL
Цветовое пространство : YUV
Субдискретизация насыщенности : 4:2:0
Битовая глубина : 8 бит
Тип развёртки : Прогрессивная
Бит/(Пиксели*Кадры) : 0.383
Размер потока : 553 Мбайт (98%)
Язык : English
Дата кодирования : UTC 2013-10-17 12:34:02
Дата пометки : UTC 2013-10-17 12:34:02

Аудио
Идентификатор : 2
Формат : AAC
Формат/Информация : Advanced Audio Codec
Профиль формата : LC
Идентификатор кодека : 40
Продолжительность : 3 м. 53 с.
Продолжительность оригинала : 3 м. 53 с.
Вид битрейта : Переменный
Битрейт : 317 Кбит/сек
Максимальный битрейт : 436 Кбит/сек
Каналы : 2 канала
Расположение каналов : Front: L R
Частота : 48,0 КГц
Метод сжатия : С потерями
Размер потока : 8,84 Мбайт (2%)
Размер потока оригинала : 8,84 Мбайт (2%)
Язык : English
Дата кодирования : UTC 2013-10-17 12:34:02
Дата пометки : UTC 2013-10-17 12:34:02

Общее
Полное имя : Clip\Алсу - Нет тебя дороже.mp4
Формат : MPEG-4
Профиль формата : Base Media / Version 2
Идентификатор кодека : mp42
Размер файла : 459 Мбайт
Продолжительность : 3 м. 25 с.
Режим общего битрейта : Переменный
Общий поток : 18,7 Мбит/сек
Дата кодирования : UTC 2013-11-26 17:39:54
Дата пометки : UTC 2013-11-26 17:39:54
©TIM : 00:00:00:00
©TSC : 25
©TSZ : 1

Видео
Идентификатор : 1
Формат : AVC
Формат/Информация : Advanced Video Codec
Профиль формата :
Параметр CABAC формата : Да
Параметр ReFrames формата : 3 кадра
Идентификатор кодека : avc1
Идентификатор кодека/Информация : Advanced Video Coding
Продолжительность : 3 м. 25 с.
Битрейт : 18,4 Мбит/сек
Ширина : 1920 пикселей
Высота : 1080 пикселей
Соотношение сторон : 16:9
Режим частоты кадров : Постоянный
Частота кадров : 25,000 кадров/сек
Стандарт вещания : PAL
Цветовое пространство : YUV
Субдискретизация насыщенности : 4:2:0
Битовая глубина : 8 бит
Тип развёртки : Прогрессивная
Бит/(Пиксели*Кадры) : 0.354
Размер потока : 451 Мбайт (98%)
Язык : English
Дата кодирования : UTC 2013-11-26 17:39:54
Дата пометки : UTC 2013-11-26 17:39:54

Аудио
Идентификатор : 2
Формат : AAC
Формат/Информация : Advanced Audio Codec
Профиль формата : LC
Идентификатор кодека : 40
Продолжительность : 3 м. 25 с.
Продолжительность оригинала : 3 м. 25 с.
Вид битрейта : Переменный
Битрейт : 317 Кбит/сек
Максимальный битрейт : 413 Кбит/сек
Каналы : 2 канала
Расположение каналов : Front: L R
Частота : 48,0 КГц
Метод сжатия : С потерями
Размер потока : 7,79 Мбайт (2%)
Размер потока оригинала : 7,79 Мбайт (2%)
Язык : English
Дата кодирования : UTC 2013-11-26 17:39:54
Дата пометки : UTC 2013-11-26 17:39:54

Общее
Полное имя : Clip\Анжелика Варум - Сумасшедшая.mp4
Формат : MPEG-4
Профиль формата : Base Media / Version 2
Идентификатор кодека : mp42
Размер файла : 618 Мбайт
Продолжительность : 4 м. 27 с.
Режим общего битрейта : Переменный
Общий поток : 19,3 Мбит/сек
Дата кодирования : UTC 2013-10-15 20:10:13
Дата пометки : UTC 2013-10-15 20:10:13
©TIM : 00:00:00:00
©TSC : 25
©TSZ : 1

Видео
Идентификатор : 1
Формат : AVC
Формат/Информация : Advanced Video Codec
Профиль формата :
Параметр CABAC формата : Да
Параметр ReFrames формата : 3 кадра
Идентификатор кодека : avc1
Идентификатор кодека/Информация : Advanced Video Coding
Продолжительность : 4 м. 27 с.
Битрейт : 19,0 Мбит/сек
Ширина : 1920 пикселей
Высота : 1080 пикселей
Соотношение сторон : 16:9
Режим частоты кадров : Постоянный
Частота кадров : 25,000 кадров/сек
Стандарт вещания : PAL
Цветовое пространство : YUV
Субдискретизация насыщенности : 4:2:0
Битовая глубина : 8 бит
Тип развёртки : Прогрессивная
Бит/(Пиксели*Кадры) : 0.367
Размер потока : 607 Мбайт (98%)
Язык : English
Дата кодирования : UTC 2013-10-15 20:10:13
Дата пометки : UTC 2013-10-15 20:10:13

Аудио
Идентификатор : 2
Формат : AAC
Формат/Информация : Advanced Audio Codec
Профиль формата : LC
Идентификатор кодека : 40
Продолжительность : 4 м. 27 с.
Продолжительность оригинала : 4 м. 27 с.
Вид битрейта : Переменный
Битрейт : 317 Кбит/сек
Максимальный битрейт : 411 Кбит/сек
Каналы : 2 канала
Расположение каналов : Front: L R
Частота : 48,0 КГц
Метод сжатия : С потерями
Размер потока : 10,1 Мбайт (2%)
Размер потока оригинала : 10,1 Мбайт (2%)
Язык : English
Дата кодирования : UTC 2013-10-15 20:10:13
Дата пометки : UTC 2013-10-15 20:10:13

Общее
Полное имя :\Clip\Виа Гра - Обмани но останься.mp4
Формат : MPEG-4
Профиль формата : Base Media / Version 2
Идентификатор кодека : mp42
Размер файла : 238 Мбайт
Продолжительность : 4 м. 8 с.
Режим общего битрейта : Переменный
Общий поток : 8017 Кбит/сек

Видео
Идентификатор : 1
Формат : AVC
Формат/Информация : Advanced Video Codec
Профиль формата :
Параметр CABAC формата : Да
Параметр ReFrames формата : 3 кадра
Параметр GOP формата : M=4, N=33
Идентификатор кодека : avc1
Идентификатор кодека/Информация : Advanced Video Coding
Продолжительность : 4 м. 8 с.
Продолжительность оригинала : 4 м. 8 с.
Битрейт : 7696 Кбит/сек
Ширина : 1920 пикселей
Высота : 1080 пикселей
Соотношение сторон : 16:9
Режим частоты кадров : Постоянный
Частота кадров : 25,000 кадров/сек
Стандарт вещания : PAL
Цветовое пространство : YUV
Субдискретизация насыщенности : 4:2:0
Битовая глубина : 8 бит
Тип развёртки : Прогрессивная
Бит/(Пиксели*Кадры) : 0.148
Размер потока : 228 Мбайт (96%)
Размер потока оригинала : 228 Мбайт (96%)
Язык : English
mdhd_Duration : 248600

Аудио
Идентификатор : 2
Формат : AAC
Формат/Информация : Advanced Audio Codec
Профиль формата : LC
Идентификатор кодека : 40
Продолжительность : 4 м. 8 с.
Продолжительность оригинала : 4 м. 8 с.
Вид битрейта : Переменный
Битрейт : 317 Кбит/сек
Каналы : 2 канала
Расположение каналов : Front: L R
Частота : 48,0 КГц
Метод сжатия : С потерями
Размер потока : 9,41 Мбайт (4%)
Размер потока оригинала : 9,41 Мбайт (4%)
Язык : English
mdhd_Duration : 248640

Общее
Полное имя :\Clip\Виагра - Перемирие.mp4
Формат : MPEG-4
Профиль формата : Base Media / Version 2
Идентификатор кодека : mp42
Размер файла : 583 Мбайт
Продолжительность : 4 м. 8 с.
Режим общего битрейта : Переменный
Общий поток : 19,7 Мбит/сек
Дата кодирования : UTC 2013-11-26 18:18:22
Дата пометки : UTC 2013-11-26 18:18:22
©TIM : 00:00:00:00
©TSC : 25
©TSZ : 1

Видео
Идентификатор : 1
Формат : AVC
Формат/Информация : Advanced Video Codec
Профиль формата :
Параметр CABAC формата : Да
Параметр ReFrames формата : 3 кадра
Идентификатор кодека : avc1
Идентификатор кодека/Информация : Advanced Video Coding
Продолжительность : 4 м. 8 с.
Продолжительность оригинала : 4 м. 8 с.
Битрейт : 19,4 Мбит/сек
Ширина : 1920 пикселей
Высота : 1080 пикселей
Соотношение сторон : 16:9
Режим частоты кадров : Постоянный
Частота кадров : 25,000 кадров/сек
Стандарт вещания : PAL
Цветовое пространство : YUV
Субдискретизация насыщенности : 4:2:0
Битовая глубина : 8 бит
Тип развёртки : Прогрессивная
Бит/(Пиксели*Кадры) : 0.373
Размер потока : 573 Мбайт (98%)
Размер потока оригинала : 574 Мбайт (98%)
Язык : English
Дата кодирования : UTC 2013-11-26 18:18:22
Дата пометки : UTC 2013-11-26 18:18:22
mdhd_Duration : 248391

Аудио
Идентификатор : 2
Формат : AAC
Формат/Информация : Advanced Audio Codec
Профиль формата : LC
Идентификатор кодека : 40
Продолжительность : 4 м. 8 с.
Продолжительность оригинала : 4 м. 8 с.
Вид битрейта : Переменный
Битрейт : 317 Кбит/сек
Максимальный битрейт : 411 Кбит/сек
Каналы : 2 канала
Расположение каналов : Front: L R
Частота : 48,0 КГц
Метод сжатия : С потерями
Размер потока : 9,40 Мбайт (2%)
Размер потока оригинала : 9,41 Мбайт (2%)
Язык : English
Дата кодирования : UTC 2013-11-26 18:18:22
Дата пометки : UTC 2013-11-26 18:18:22

Общее
Полное имя : \Clip\Горячий Шоколад - Две Недели Рая.mp4
Формат : MPEG-4
Профиль формата : Base Media / Version 2
Идентификатор кодека : mp42
Размер файла : 486 Мбайт
Продолжительность : 4 м. 1 с.
Режим общего битрейта : Переменный
Общий поток : 16,9 Мбит/сек
Дата кодирования : UTC 2013-09-29 09:47:10
Дата пометки : UTC 2013-09-29 09:47:10
©TIM : 00:00:00:00
©TSC : 25
©TSZ : 1

Видео
Идентификатор : 1
Формат : AVC
Формат/Информация : Advanced Video Codec
Профиль формата :
Параметр CABAC формата : Да
Параметр ReFrames формата : 3 кадра
Идентификатор кодека : avc1
Идентификатор кодека/Информация : Advanced Video Coding
Продолжительность : 4 м. 1 с.
Битрейт : 16,5 Мбит/сек
Ширина : 1920 пикселей
Высота : 1080 пикселей
Соотношение сторон : 16:9
Режим частоты кадров : Постоянный
Частота кадров : 25,000 кадров/сек
Стандарт вещания : PAL
Цветовое пространство : YUV
Субдискретизация насыщенности : 4:2:0
Битовая глубина : 8 бит
Тип развёртки : Прогрессивная
Бит/(Пиксели*Кадры) : 0.319
Размер потока : 476 Мбайт (98%)
Язык : English
Дата кодирования : UTC 2013-09-29 09:47:11
Дата пометки : UTC 2013-09-29 09:47:11

Аудио
Идентификатор : 2
Формат : AAC
Формат/Информация : Advanced Audio Codec
Профиль формата : LC
Идентификатор кодека : 40
Продолжительность : 4 м. 1 с.
Продолжительность оригинала : 4 м. 1 с.
Вид битрейта : Переменный
Битрейт : 317 Кбит/сек
Максимальный битрейт : 413 Кбит/сек
Каналы : 2 канала
Расположение каналов : Front: L R
Частота : 48,0 КГц
Метод сжатия : С потерями
Размер потока : 9,15 Мбайт (2%)
Размер потока оригинала : 9,15 Мбайт (2%)
Язык : English
Дата кодирования : UTC 2013-09-29 09:47:11
Дата пометки : UTC 2013-09-29 09:47:11

Общее
Полное имя : \Clip\Зебра - Андрюша.mp4
Формат : MPEG-4
Профиль формата : Base Media / Version 2
Идентификатор кодека : mp42
Размер файла : 521 Мбайт
Продолжительность : 3 м. 20 с.
Режим общего битрейта : Переменный
Общий поток : 21,8 Мбит/сек
Дата кодирования : UTC 2013-09-10 14:12:56
Дата пометки : UTC 2013-09-10 14:12:56
©TIM : 00:00:00:00
©TSC : 25
©TSZ : 1

Видео
Идентификатор : 1
Формат : AVC
Формат/Информация : Advanced Video Codec
Профиль формата :
Параметр CABAC формата : Да
Параметр ReFrames формата : 3 кадра
Идентификатор кодека : avc1
Идентификатор кодека/Информация : Advanced Video Coding
Продолжительность : 3 м. 20 с.
Битрейт : 21,5 Мбит/сек
Ширина : 1920 пикселей
Высота : 1080 пикселей
Соотношение сторон : 16:9
Режим частоты кадров : Постоянный
Частота кадров : 25,000 кадров/сек
Стандарт вещания : PAL
Цветовое пространство : YUV
Субдискретизация насыщенности : 4:2:0
Битовая глубина : 8 бит
Тип развёртки : Прогрессивная
Бит/(Пиксели*Кадры) : 0.415
Размер потока : 513 Мбайт (99%)
Язык : English
Дата кодирования : UTC 2013-09-10 14:12:56
Дата пометки : UTC 2013-09-10 14:12:56

Аудио
Идентификатор : 2
Формат : AAC
Формат/Информация : Advanced Audio Codec
Профиль формата : LC
Идентификатор кодека : 40
Продолжительность : 3 м. 20 с.
Продолжительность оригинала : 3 м. 20 с.
Вид битрейта : Переменный
Битрейт : 317 Кбит/сек
Максимальный битрейт : 372 Кбит/сек
Каналы : 2 канала
Расположение каналов : Front: L R
Частота : 48,0 КГц
Метод сжатия : С потерями
Размер потока : 7,58 Мбайт (1%)
Размер потока оригинала : 7,58 Мбайт (1%)
Язык : English
Дата кодирования : UTC 2013-09-10 14:12:56
Дата пометки : UTC 2013-09-10 14:12:56

Общее
Полное имя : \Clip\Лавика - Вечный Рай.mp4
Формат : MPEG-4
Профиль формата : Base Media / Version 2
Идентификатор кодека : mp42
Размер файла : 442 Мбайт
Продолжительность : 3 м. 8 с.
Режим общего битрейта : Переменный
Общий поток : 19,7 Мбит/сек
Дата кодирования : UTC 2013-10-25 19:33:52
Дата пометки : UTC 2013-10-25 19:33:52
©TIM : 00:00:00:00
©TSC : 25
©TSZ : 1

Видео
Идентификатор : 1
Формат : AVC
Формат/Информация : Advanced Video Codec
Профиль формата :
Параметр CABAC формата : Да
Параметр ReFrames формата : 3 кадра
Идентификатор кодека : avc1
Идентификатор кодека/Информация : Advanced Video Coding
Продолжительность : 3 м. 8 с.
Битрейт : 19,4 Мбит/сек
Ширина : 1920 пикселей
Высота : 1080 пикселей
Соотношение сторон : 16:9
Режим частоты кадров : Постоянный
Частота кадров : 25,000 кадров/сек
Стандарт вещания : PAL
Цветовое пространство : YUV
Субдискретизация насыщенности : 4:2:0
Битовая глубина : 8 бит
Тип развёртки : Прогрессивная
Бит/(Пиксели*Кадры) : 0.373
Размер потока : 435 Мбайт (98%)
Язык : English
Дата кодирования : UTC 2013-10-25 19:33:52
Дата пометки : UTC 2013-10-25 19:33:52

Аудио
Идентификатор : 2
Формат : AAC
Формат/Информация : Advanced Audio Codec
Профиль формата : LC
Идентификатор кодека : 40
Продолжительность : 3 м. 8 с.
Продолжительность оригинала : 3 м. 8 с.
Вид битрейта : Переменный
Битрейт : 317 Кбит/сек
Максимальный битрейт : 418 Кбит/сек
Каналы : 2 канала
Расположение каналов : Front: L R
Частота : 48,0 КГц
Метод сжатия : С потерями
Размер потока : 7,13 Мбайт (2%)
Размер потока оригинала : 7,13 Мбайт (2%)
Язык : English
Дата кодирования : UTC 2013-10-25 19:33:52
Дата пометки : UTC 2013-10-25 19:33:52

Общее
Полное имя : \Clip\Татьяна Буланова и Константин Костомаров - С этого дня.mp4
Формат : MPEG-4
Профиль формата : Base Media / Version 2
Идентификатор кодека : mp42
Размер файла : 451 Мбайт
Продолжительность : 3 м. 15 с.
Режим общего битрейта : Переменный
Общий поток : 19,3 Мбит/сек
Дата кодирования : UTC 2013-10-15 21:08:03
Дата пометки : UTC 2013-10-15 21:08:03
©TIM : 00:00:00:00
©TSC : 25
©TSZ : 1

Видео
Идентификатор : 1
Формат : AVC
Формат/Информация : Advanced Video Codec
Профиль формата :
Параметр CABAC формата : Да
Параметр ReFrames формата : 3 кадра
Идентификатор кодека : avc1
Идентификатор кодека/Информация : Advanced Video Coding
Продолжительность : 3 м. 15 с.
Битрейт : 19,0 Мбит/сек
Ширина : 1920 пикселей
Высота : 1080 пикселей
Соотношение сторон : 16:9
Режим частоты кадров : Постоянный
Частота кадров : 25,000 кадров/сек
Стандарт вещания : PAL
Цветовое пространство : YUV
Субдискретизация насыщенности : 4:2:0
Битовая глубина : 8 бит
Тип развёртки : Прогрессивная
Бит/(Пиксели*Кадры) : 0.366
Размер потока : 443 Мбайт (98%)
Язык : English
Дата кодирования : UTC 2013-10-15 21:08:03
Дата пометки : UTC 2013-10-15 21:08:03

Аудио
Идентификатор : 2
Формат : AAC
Формат/Информация : Advanced Audio Codec
Профиль формата : LC
Идентификатор кодека : 40
Продолжительность : 3 м. 15 с.
Продолжительность оригинала : 3 м. 15 с.
Вид битрейта : Переменный
Битрейт : 317 Кбит/сек
Максимальный битрейт : 400 Кбит/сек
Каналы : 2 канала
Расположение каналов : Front: L R
Частота : 48,0 КГц
Метод сжатия : С потерями
Размер потока : 7,41 Мбайт (2%)
Размер потока оригинала : 7,41 Мбайт (2%)
Язык : English
Дата кодирования : UTC 2013-10-15 21:08:03
Дата пометки : UTC 2013-10-15 21:08:03

Общее
Полное имя : \Clip\Татьяна Котова - Признание.mp4
Формат : MPEG-4
Профиль формата : Base Media / Version 2
Идентификатор кодека : mp42
Размер файла : 504 Мбайт
Продолжительность : 3 м. 13 с.
Режим общего битрейта : Переменный
Общий поток : 21,8 Мбит/сек
Дата кодирования : UTC 2013-09-02 16:06:02
Дата пометки : UTC 2013-09-02 16:06:02
©TIM : 00:00:00:00
©TSC : 25
©TSZ : 1

Видео
Идентификатор : 1
Формат : AVC
Формат/Информация : Advanced Video Codec
Профиль формата :
Параметр CABAC формата : Да
Параметр ReFrames формата : 3 кадра
Идентификатор кодека : avc1
Идентификатор кодека/Информация : Advanced Video Coding
Продолжительность : 3 м. 13 с.
Битрейт : 21,5 Мбит/сек
Ширина : 1920 пикселей
Высота : 1080 пикселей
Соотношение сторон : 16:9
Режим частоты кадров : Постоянный
Частота кадров : 25,000 кадров/сек
Стандарт вещания : PAL
Цветовое пространство : YUV
Субдискретизация насыщенности : 4:2:0
Битовая глубина : 8 бит
Тип развёртки : Прогрессивная
Бит/(Пиксели*Кадры) : 0.414
Размер потока : 496 Мбайт (99%)
Язык : English
Дата кодирования : UTC 2013-09-02 16:06:02
Дата пометки : UTC 2013-09-02 16:06:02

Аудио
Идентификатор : 2
Формат : AAC
Формат/Информация : Advanced Audio Codec
Профиль формата : LC
Идентификатор кодека : 40
Продолжительность : 3 м. 13 с.
Продолжительность оригинала : 3 м. 13 с.
Вид битрейта : Переменный
Битрейт : 317 Кбит/сек
Максимальный битрейт : 415 Кбит/сек
Каналы : 2 канала
Расположение каналов : Front: L R
Частота : 48,0 КГц
Метод сжатия : С потерями
Размер потока : 7,34 Мбайт (1%)
Размер потока оригинала : 7,34 Мбайт (1%)
Язык : English
Дата кодирования : UTC 2013-09-02 16:06:02
Дата пометки : UTC 2013-09-02 16:06:02

Общее
Полное имя : \Clip\Эрика - С первого взгляда.mp4
Формат : MPEG-4
Профиль формата : Base Media / Version 2
Идентификатор кодека : mp42
Размер файла : 429 Мбайт
Продолжительность : 3 м. 33 с.
Режим общего битрейта : Переменный
Общий поток : 16,9 Мбит/сек
Дата кодирования : UTC 2013-09-29 08:31:06
Дата пометки : UTC 2013-09-29 08:31:06
©TIM : 00:00:00:00
©TSC : 25
©TSZ : 1

Видео
Идентификатор : 1
Формат : AVC
Формат/Информация : Advanced Video Codec
Профиль формата :
Параметр CABAC формата : Да
Параметр ReFrames формата : 3 кадра
Идентификатор кодека : avc1
Идентификатор кодека/Информация : Advanced Video Coding
Продолжительность : 3 м. 33 с.
Битрейт : 16,6 Мбит/сек
Ширина : 1920 пикселей
Высота : 1080 пикселей
Соотношение сторон : 16:9
Режим частоты кадров : Постоянный
Частота кадров : 25,000 кадров/сек
Стандарт вещания : PAL
Цветовое пространство : YUV
Субдискретизация насыщенности : 4:2:0
Битовая глубина : 8 бит
Тип развёртки : Прогрессивная
Бит/(Пиксели*Кадры) : 0.320
Размер потока : 421 Мбайт (98%)
Язык : English
Дата кодирования : UTC 2013-09-29 08:31:06
Дата пометки : UTC 2013-09-29 08:31:06

Аудио
Идентификатор : 2
Формат : AAC
Формат/Информация : Advanced Audio Codec
Профиль формата : LC
Идентификатор кодека : 40
Продолжительность : 3 м. 33 с.
Продолжительность оригинала : 3 м. 33 с.
Вид битрейта : Переменный
Битрейт : 317 Кбит/сек
Максимальный битрейт : 402 Кбит/сек
Каналы : 2 канала
Расположение каналов : Front: L R
Частота : 48,0 КГц
Метод сжатия : С потерями
Размер потока : 8,06 Мбайт (2%)
Размер потока оригинала : 8,06 Мбайт (2%)
Язык : English
Дата кодирования : UTC 2013-09-29 08:31:06
Дата пометки : UTC 2013-09-29 08:31:06

Общее
Полное имя : \Clip\Ярослава - Это любовь.mp4
Формат : MPEG-4
Профиль формата : Base Media / Version 2
Идентификатор кодека : mp42
Размер файла : 730 Мбайт
Продолжительность : 4 м. 40 с.
Режим общего битрейта : Переменный
Общий поток : 21,8 Мбит/сек
Дата кодирования : UTC 2013-09-01 23:35:44
Дата пометки : UTC 2013-09-01 23:35:44
©TIM : 00:00:00:00
©TSC : 25
©TSZ : 1

Видео
Идентификатор : 1
Формат : AVC
Формат/Информация : Advanced Video Codec
Профиль формата :
Параметр CABAC формата : Да
Параметр ReFrames формата : 3 кадра
Идентификатор кодека : avc1
Идентификатор кодека/Информация : Advanced Video Coding
Продолжительность : 4 м. 40 с.
Битрейт : 21,5 Мбит/сек
Ширина : 1920 пикселей
Высота : 1080 пикселей
Соотношение сторон : 16:9
Режим частоты кадров : Постоянный
Частота кадров : 25,000 кадров/сек
Стандарт вещания : PAL
Цветовое пространство : YUV
Субдискретизация насыщенности : 4:2:0
Битовая глубина : 8 бит
Тип развёртки : Прогрессивная
Бит/(Пиксели*Кадры) : 0.415
Размер потока : 719 Мбайт (99%)
Язык : English
Дата кодирования : UTC 2013-09-01 23:35:44
Дата пометки : UTC 2013-09-01 23:35:44

Аудио
Идентификатор : 2
Формат : AAC
Формат/Информация : Advanced Audio Codec
Профиль формата : LC
Идентификатор кодека : 40
Продолжительность : 4 м. 40 с.
Продолжительность оригинала : 4 м. 40 с.
Вид битрейта : Переменный
Битрейт : 317 Кбит/сек
Максимальный битрейт : 413 Кбит/сек
Каналы : 2 канала
Расположение каналов : Front: L R
Частота : 48,0 КГц
Метод сжатия : С потерями
Размер потока : 10,6 Мбайт (1%)
Размер потока оригинала : 10,6 Мбайт (1%)
Язык : English
Дата кодирования : UTC 2013-09-01 23:35:44
Дата пометки : UTC 2013-09-01 23:35:44
Скриншоты:

Правила, инструкции, FAQ!!!
Торрент  Добавлен [06 янв 2014, 10:38] Скачать торрент
Скачать торрент
[ Размер 31.04 КБ / Просмотров 29 ]

Статус
Проверен 
 
Размер  5.88 ГБ
Приватный: Нет (DHT включён)
.torrent скачан  3
Как залить торрент? | Как скачать Torrent? | Как смотреть и слушать онлайн?  
RG Rutorka
 


Вернуться в Клипы (HD-Video)

Кто сейчас на конференции

Сейчас этот форум просматривают: нет зарегистрированных пользователей и гости: 0

   Наша команда  Удалить cookies конференции • Часовой пояс: UTC + 3 часа

Пользовательское соглашение  |  Для правообладателей  | 

cron