(Ретро) MODO - Raimonds Pauls - Naktsputni (ВИА МОДО) - 2005, FLAC (image+.cue), lossless


Статистика раздачи
Размер: 222.04 МБ | Добавлен: 30 июл 2017, 10:53 | Скачали: 2
Сидеров: 3  [0 байт/сек]    Личеров: 1  [0 байт/сек]

Сообщение Гость » 30 июл 2017, 10:53

MODO - Raimonds Pauls - Naktsputni (ВИА МОДО)
Жанр: Ретро
Год выпуска диска: 2005
Производитель диска: Латвия
Аудио кодек: FLAC
Тип рипа: image+.cue
Битрейт аудио: lossless
Продолжительность: 34.42
Трэклист:
01. Tai pilseta
02. Juras Zvaigzne
03. Egпu zvanos
04. Ka svece deg
05. Dienas ena
06. Naktsputni
07. Virietis labakajos gados
08. Tavs sauciens
09. Ka caur pelniem
10. Speles
11. MODO
Доп. информация:
Exact Audio Copy V0.99 prebeta 5 from 4. May 2009
Отчёт EAC об извлечении, выполненном 14. августа 2009, 11:51
Raimonds Pauls / Naktsputni
Дисковод: _NEC DVD_RW ND-4570A Adapter: 0 ID: 0
Режим чтения : Достоверность
Использование точного потока : Да
Отключение кэша аудио : Да
Использование указателей C2 : Нет
Коррекция смещения при чтении : 48
Способность читать области Lead-in и Lead-out : Нет
Заполнение пропущенных сэмплов тишиной : Да
Удаление блоков с тишиной в начале и конце : Нет
При вычислениях CRC использовались нулевые сэмплы : Да
Интерфейс : Встроенный Win32-интерфейс для Win NT/2000
Выходной формат : Пользовательский кодировщик
Выбранный битрейт : 768 kBit/s
Качество : Высокий
Добавление ID3-тэга : Нет
Утилита сжатия : C:\Program Files\Exact Audio Copy\Flac\flac.exe
Дополнительные параметры : -8 -V %s -o %d
TOC извлечённого CD
Трек | Старт | Длительность | Начальный сектор | Конечный сектор
---------------------------------------------------------------------
1 | 0:00.00 | 2:51.41 | 0 | 12865
2 | 2:51.41 | 2:56.38 | 12866 | 26103
3 | 5:48.04 | 2:43.39 | 26104 | 38367
4 | 8:31.43 | 3:11.59 | 38368 | 52751
5 | 11:43.27 | 2:38.07 | 52752 | 64608
6 | 14:21.34 | 2:53.03 | 64609 | 77586
7 | 17:14.37 | 2:50.50 | 77587 | 90386
8 | 20:05.12 | 3:21.54 | 90387 | 105515
9 | 23:26.66 | 4:18.43 | 105516 | 124908
10 | 27:45.34 | 3:57.50 | 124909 | 142733
11 | 31:43.09 | 2:59.14 | 142734 | 156172
Характеристики диапазона извлечения и сообщения об ошибках
Выбранный диапазон
Имя файла C:\InputFolder\MODO\Raimonds Pauls - Naktsputni.wav
Пиковый уровень 100.0 %
Качество диапазона 99.9 %
CRC теста 9DFBAC9A
CRC копии 9DFBAC9A
Копирование... OK
Ошибок не произошло
AccurateRip: сводка
Трек 1 нет в базе данных
Трек 2 нет в базе данных
Трек 3 нет в базе данных
Трек 4 нет в базе данных
Трек 5 нет в базе данных
Трек 6 нет в базе данных
Трек 7 нет в базе данных
Трек 8 нет в базе данных
Трек 9 нет в базе данных
Трек 10 нет в базе данных
Трек 11 нет в базе данных
Ни одного трека нет в базе AccurateRip
Конец отчёта
Известный латвийский ансамбль под управлением раймонда Паулса.
Изданный в Латвии CD-копия лонгплея этой группы 1978 года.
Правила, инструкции, FAQ!!!
Торрент  Добавлен [30 июл 2017, 10:53] Скачать торрент
Скачать торрент
[ Размер 18.18 КБ / Просмотров 15 ]

Статус
Проверен 
 
Размер  222.04 МБ
Приватный: Нет (DHT включён)
.torrent скачан  2
Как залить торрент? | Как скачать Torrent? | Как смотреть и слушать онлайн?  
Гость
 


Вернуться в Советская эстрада

Кто сейчас на конференции

Сейчас этот форум просматривают: нет зарегистрированных пользователей и гости: 0

   Наша команда  Удалить cookies конференции • Часовой пояс: UTC + 3 часа

Пользовательское соглашение  |  Для правообладателей  | 

cron