(Retro) Бисер Киров - Лучшие песни - 2009, MP3 (tracks), 320 kbps


Статистика раздачи
Размер: 156.43 МБ | Добавлен: 30 июл 2017, 10:15 | Скачали: 4
Сидеров: 112  [0 байт/сек]    Личеров: 17  [0 байт/сек]

Сообщение Гость » 30 июл 2017, 10:15

Бисер Киров - Лучшие песни
Жанр: Retro
Год выпуска диска: 2009
Производитель диска: Россия
Аудио кодек: MP3
Тип рипа: tracks
Битрейт аудио: 320 kbps
Продолжительность: 66 минут 06 секунд
Трэклист:
01. Алёша (Э.Колмановский - К.Ваншенкин) - 02:54
02. Татьянин день (Ю.Саульский - Н.Олев) - 03:41
03. Сон (П.Слободкин - О.Гаджикасимов) - 03:41
04. Птица счастья (А.Пахмутова - Н.Добронравов) - 02:49
05. Зацелована (Б.Киров - Н.Заболоцкий) - 04:08
06. Нет женщин нелюбимых (Б.Киров - А.Дементьев) - 03:04
07. Дождь (Б.Киров - Б.Киров, М.Маринов) - 03:45
08. Ничего не жалеть для друзей (Б.Киров - А.Поперечный) - 03:40
09. Волшебное вино (Б.Киров - Ю.Гарин) - 04:28
10. Элегия (Б.Киров - Д.Методиев) - 04:28
11. От теб до мен (Б.Киров - Д.Банева) - 04:00
12. Гуантанамера (Кубинская народная песня) - 03:53
13. Песен за бащите (Б.Киров, С.Бутански - Б.Киров, С.Бутански) - 03:53
14. Сердце (И.Дунаевский - В.Лебедев-Кумач) - 02:21
15. Песня о Москве (Т.Хренников - В.Гусев) - 03:22
16. Русский букет (Русские народные песни в обработке Б.Кирова) - 03:10
17. Народна китка (Попурри болгарских народных песен) - 04:28
18. Люблю (Б.Киров - Н.Добронравов) - 04:14
Exact Audio Copy V0.99 prebeta 4 from 23. January 2008
Отчёт EAC об извлечении, выполненном 18. сентября 2009, 13:04
Бисер Киров / Лучшие песни
Дисковод: _NEC DVD_RW ND-4551A Adapter: 1 ID: 1
Режим чтения : Достоверность
Использование точного потока : Да
Отключение кэша аудио : Да
Использование указателей C2 : Нет
Коррекция смещения при чтении : 48
Способность читать области Lead-in и Lead-out : Нет
Заполнение пропущенных сэмплов тишиной : Да
Удаление блоков с тишиной в начале и конце : Нет
При вычислениях CRC использовались нулевые сэмплы : Нет
Интерфейс : Установленный внешний ASPI-интерфейс
Обработка зазоров : Исключено
Выходной формат : Внутренние WAV-операции
Формат сэмплов : 44.100 Гц; 16 бит; стерео
TOC извлечённого CD
Трек | Старт | Длительность | Начальный сектор | Конечный сектор
---------------------------------------------------------------------
1 | 0:00.00 | 2:54.69 | 0 | 13118
2 | 2:54.69 | 3:41.51 | 13119 | 29744
3 | 6:36.45 | 3:41.61 | 29745 | 46380
4 | 10:18.31 | 2:49.16 | 46381 | 59071
5 | 13:07.47 | 4:08.34 | 59072 | 77705
6 | 17:16.06 | 3:04.12 | 77706 | 91517
7 | 20:20.18 | 3:45.64 | 91518 | 108456
8 | 24:06.07 | 3:40.31 | 108457 | 124987
9 | 27:46.38 | 4:28.12 | 124988 | 145099
10 | 32:14.50 | 4:28.28 | 145100 | 165227
11 | 36:43.03 | 4:00.08 | 165228 | 183235
12 | 40:43.11 | 3:53.39 | 183236 | 200749
13 | 44:36.50 | 3:53.62 | 200750 | 218286
14 | 48:30.37 | 2:21.15 | 218287 | 228876
15 | 50:51.52 | 3:22.24 | 228877 | 244050
16 | 54:14.01 | 3:10.53 | 244051 | 258353
17 | 57:24.54 | 4:28.03 | 258354 | 278456
18 | 61:52.57 | 4:14.44 | 278457 | 297550
Трек 1
Имя файла H:\Бисер Киров - Лучшие песни (2009)\01 - Бисер Киров - Алёша.wav
Длина предзазора 0:00:02.00
Пиковый уровень 81.1 %
Качество трека 100.0 %
CRC теста AE90B6E0
CRC копии AE90B6E0
Копирование... OK
Трек 2
Имя файла H:\Бисер Киров - Лучшие песни (2009)\02 - Бисер Киров - Татьянин день.wav
Пиковый уровень 97.4 %
Качество трека 100.0 %
CRC теста 2261F524
CRC копии 2261F524
Копирование... OK
Трек 3
Имя файла H:\Бисер Киров - Лучшие песни (2009)\03 - Бисер Киров - Сон.wav
Пиковый уровень 62.1 %
Качество трека 99.9 %
CRC теста A6CBC7DD
CRC копии A6CBC7DD
Копирование... OK
Трек 4
Имя файла H:\Бисер Киров - Лучшие песни (2009)\04 - Бисер Киров - Птица счастья.wav
Пиковый уровень 98.8 %
Качество трека 100.0 %
CRC теста 212D8A2E
CRC копии 212D8A2E
Копирование... OK
Трек 5
Имя файла H:\Бисер Киров - Лучшие песни (2009)\05 - Бисер Киров - Зацелована.wav
Пиковый уровень 95.4 %
Качество трека 100.0 %
CRC теста 78743BDD
CRC копии 78743BDD
Копирование... OK
Трек 6
Имя файла H:\Бисер Киров - Лучшие песни (2009)\06 - Бисер Киров - Нет женщин нелюбимых.wav
Пиковый уровень 85.4 %
Качество трека 100.0 %
CRC теста BF8F7CCA
CRC копии BF8F7CCA
Копирование... OK
Трек 7
Имя файла H:\Бисер Киров - Лучшие песни (2009)\07 - Бисер Киров - Дождь.wav
Пиковый уровень 98.8 %
Качество трека 100.0 %
CRC теста E1C9CD3F
CRC копии E1C9CD3F
Копирование... OK
Трек 8
Имя файла H:\Бисер Киров - Лучшие песни (2009)\08 - Бисер Киров - Ничего не жалеть для друзей.wav
Пиковый уровень 89.6 %
Качество трека 100.0 %
CRC теста 0F7F201F
CRC копии 0F7F201F
Копирование... OK
Трек 9
Имя файла H:\Бисер Киров - Лучшие песни (2009)\09 - Бисер Киров - Волшебное вино.wav
Пиковый уровень 87.8 %
Качество трека 100.0 %
CRC теста 0518E0A8
CRC копии 0518E0A8
Копирование... OK
Трек 10
Имя файла H:\Бисер Киров - Лучшие песни (2009)\10 - Бисер Киров - Элегия.wav
Пиковый уровень 85.8 %
Качество трека 100.0 %
CRC теста E5C67E00
CRC копии E5C67E00
Копирование... OK
Трек 11
Имя файла H:\Бисер Киров - Лучшие песни (2009)\11 - Бисер Киров - От теб до мен.wav
Пиковый уровень 95.8 %
Качество трека 100.0 %
CRC теста D18C741B
CRC копии D18C741B
Копирование... OK
Трек 12
Имя файла H:\Бисер Киров - Лучшие песни (2009)\12 - Бисер Киров - Гуантанамера.wav
Пиковый уровень 89.9 %
Качество трека 100.0 %
CRC теста 39B14453
CRC копии 39B14453
Копирование... OK
Трек 13
Имя файла H:\Бисер Киров - Лучшие песни (2009)\13 - Бисер Киров - Песен за бащите.wav
Пиковый уровень 84.2 %
Качество трека 100.0 %
CRC теста 806FA107
CRC копии 806FA107
Копирование... OK
Трек 14
Имя файла H:\Бисер Киров - Лучшие песни (2009)\14 - Бисер Киров - Сердце.wav
Пиковый уровень 92.0 %
Качество трека 100.0 %
CRC теста 696D9CFB
CRC копии 696D9CFB
Копирование... OK
Трек 15
Имя файла H:\Бисер Киров - Лучшие песни (2009)\15 - Бисер Киров - Песня о Москве.wav
Пиковый уровень 97.0 %
Качество трека 100.0 %
CRC теста 466011CF
CRC копии 466011CF
Копирование... OK
Трек 16
Имя файла H:\Бисер Киров - Лучшие песни (2009)\16 - Бисер Киров - Русский букет.wav
Пиковый уровень 91.5 %
Качество трека 100.0 %
CRC теста 29CF20B9
CRC копии 29CF20B9
Копирование... OK
Трек 17
Имя файла H:\Бисер Киров - Лучшие песни (2009)\17 - Бисер Киров - Народна китка.wav
Пиковый уровень 93.6 %
Качество трека 100.0 %
CRC теста F85A34DA
CRC копии F85A34DA
Копирование... OK
Трек 18
Имя файла H:\Бисер Киров - Лучшие песни (2009)\18 - Бисер Киров - Люблю.wav
Пиковый уровень 98.8 %
Качество трека 100.0 %
CRC теста 924F355A
CRC копии 924F355A
Копирование... OK
Ошибок не произошло
Конец отчёта
Правила, инструкции, FAQ!!!
Торрент  Добавлен [30 июл 2017, 10:15] Скачать торрент
Скачать торрент
[ Размер 14.08 КБ / Просмотров 18 ]

Статус
Проверен 
 
Размер  156.43 МБ
Приватный: Нет (DHT включён)
.torrent скачан  4
Как залить торрент? | Как скачать Torrent? | Как смотреть и слушать онлайн?  
Гость
 


Вернуться в Советская эстрада

Кто сейчас на конференции

Сейчас этот форум просматривают: нет зарегистрированных пользователей и гости: 0

   Наша команда  Удалить cookies конференции • Часовой пояс: UTC + 3 часа

Пользовательское соглашение  |  Для правообладателей  | 

cron