Практическая робототехника на платформе Arduino [2013, видеокурс, Cam]


Статистика раздачи
Размер: 3.65 ГБ | Добавлен: 20 сен 2014, 00:07 | Скачали: 28
Сидеров: 467  [0 байт/сек]    Личеров: 43  [0 байт/сек]

Сообщение Гость » 20 сен 2014, 00:07

Практическая робототехника на платформе Arduino

Страна: Россия
Тематика: Робототехника, ИТ
Тип раздаваемого материала: Видеокурс
Продолжительность: серии по 10-15 минут
Год выпуска: 2013

Язык: Русский
Перевод: Не требуется

Описание: Видеокурс создан в рамках проекта "Практическая робототехника для школьников" на платформе Arduino. Материалы курса в наших видеоуроках адаптированы на младщих школьников. Мы используем Arduino, визуально программируем его на языках Scratch и ArduBlock, компоненты для построения схем - это детали конструктора "Знаток" и средства быстрого прототипирования. Постепенно, начиная от мигания светодиодом мы доходим до постройки учебного робота, управляемого по Bluetooth/Wifi. Рассмотрены типичные вопросы начинающих робототехников, в том числе управление моторами, получение показаний с датчиков, реакция на события.





Раздача включает в себя программы для всех серий и альбом схем и алгоритмов
Scratch Projects
Ardublock Projects
Раздача обновлена 28.10.2013
Если у Вас уже скачаны предыдущие серии, нет необходимости качать все заново. Просто скачайте торрент в папку со старыми сериями, таким образом докачаются только новые.
Урок 1. "Маячок".
На первом уроке сравниваем электрическую цепь с водопроводной системой, знакомимся с Arduino и Scratch, проводим первый эксперимент - мигаем светодиодом, символизируя "Hello, world!"
Урок 2. "Маячок с нарастающей яркостью".
На втором уроке знакомимся с резистором, показываем какие виды сопротивлений существуют, опять на примере водопроводной системы, во втором эксперименте мы усложняем маячок - заставляем его менять свою яркость по написанной программе. Добавляем второй светодиод, пробуем управлять или в противофазе.
Урок 3. "Светильник с управляемой яркостью".
На третьем уроке знакомимся с конденсатором на примере водонапорной башни и поливалки. В третьем эксперименте строим светильник, яркость свечения которого зависит от значения на аналоговом входе микроконтроллера.
Урок 4. "Терменвокс".
На четвертом уроке знакомимся с диодом на примере ниппеля в футбольном мяче. В эксперименте мы имитируем действие музыкального инструмента терменвокс: изменяем высоту звучания бесконтактным путем, больше или меньше закрывая от света фоторезистор.
Урок 5. "Ночной светильник".
На пятом уроке знакомимся с последовательным и параллельным соединениями сопротивлений. В эксперименте "Ночной светильник" светодиод должен включаться при падении уровня освещенности ниже порога, заданного потенциометром.
Урок 6. "Пульсар".
На шестом уроке знакомимся с транзистором на примере водопроводной системы и управляемого вентиля. В эксперименте мы плавно наращиваем яркость светодиодной шкалы, управляя большой нагрузкой через транзистор.
Урок 7. "Бегущий огонёк".
На седьмом уроке знакомимся со средой визуального программирования Arduino - ArduBlock. В эксперименте мы заставляем огонёк сначала с помощью Scratch, а затем и ArduBlock бежать по светодиодной шкале.
Урок 8. "Мерзкое пианино".
На восьмом уроке знакомимся с настоящим роботом, начинаем изучать из чего строят роботов, начиная с шасси. В эксперименте мы создаем маленькую клавиатуру, на которой можно сыграть несколько нот и программируем ее в Scratch и ArduBlock.
Урок 9. "Миксер"
На девятом уроке рассматриваем способы подключения моторов к роботу, от транзистора до драйвера двигателей. В эксперименте мы создаем модель миксера с двумя скоростями работы, управляем мотором через транзистор, обеспечиваем надежный запуск мотора.
Урок 10. "Кнопочный переключатель"
На десятом уроке знакомимся с шилдами - платами расширения для Arduino. В эксперименте мы делаем из тактовой кнопки триггер, борясь с «дребезгом контактов».
Урок 11. "Кнопочные ковбои"
На одиннадцатом уроке знакомимся с датчиками (сенсорами) - органами чувств роботов. Проверяем как видят, слышат, чувствуют движение и слушаются команд роботы. В эксперименте мы создаем игрушку на реакцию: кто быстрее нажмет кнопку по сигналу.
Урок 12. "Секундомер"
На двенадцатом уроке знакомимся с способом сделать нашего робота автономным - путем беспроводного управления по технологии Bluetooth. В эксперименте мы создаем секундомер, который считает до 10.
Урок заключительный "Робот - Вездеход Лидер c Bluetooth/WiFi"
На заключительном уроке знакомимся с интересной функцией Scratch - Скретч Сенсор. В эксперименте закрепляем полученные в предыдущих уроках навыки - строим на основе Arduino и шасси от вездехода "Лидер" управляемого из Scratch (посредством Bluetooth) робота и добавляем возможность контролировать его по WiFi с планшета.
- Arduino Uno, USB-кабель A-B
- Макетная плата беспаечная
- Провода типа "папа-папа"
- Сопротивления 220 Ом, 10 кОм
- Тактовые кнопки
- Светодиоды
- Электронный конструктор "Знаток" 999 схем
- Электронный конструктор "Вездеход Лидер"
- Переходники можно изготовить по инструкции:
Общее
Уникальный идентификатор : 185047385962738191901434929202207944230 (0x8B36D48663BA4FF7AA10FB5586606E26)
Полное имя : S:\Проект Практическая робототехника на базе Ардуино\Проект Arduino для младших школьников - 4 серия.mkv
Формат : Matroska
Версия формата : Version 1
Размер файла : 186 Мбайт
Продолжительность : 7 м. 6 с.
Общий поток : 3648 Кбит/сек
Дата кодирования : UTC 2013-10-13 15:35:10
Программа кодирования : mkvmerge v2.4.0 ('Fumbling Towards Ecstasy') built on Oct 11 2008 20:13:15
Библиотека кодирования : libebml v0.7.7 + libmatroska v0.8.1

Видео
Идентификатор : 1
Формат : AVC
Формат/Информация : Advanced Video Codec
Профиль формата : Baseline@L3.0
Параметр CABAC формата : Нет
Параметр ReFrames формата : 1 кадр
Идентификатор кодека : V_MPEG4/ISO/AVC
Продолжительность : 7 м. 6 с.
Битрейт : 3200 Кбит/сек
Ширина : 1280 пикселей
Высота : 720 пикселей
Соотношение сторон : 16:9
Режим частоты кадров : Постоянный
Частота кадров : 25,000 кадров/сек
Цветовое пространство : YUV
Субдискретизация насыщенности : 4:2:0
Битовая глубина : 8 бит
Тип развёртки : Прогрессивная
Бит/(Пиксели*Кадры) : 0.139
Размер потока : 159 Мбайт (86%)
Библиотека кодирования : x264 core 67 r1163+17 7d945df
Настройки программы : cabac=0 / ref=1 / deblock=1:0:0 / analyse=0x1:0x111 / me=hex / subme=6 / psy_rd=1.0:0.0 / mixed_ref=0 / me_range=16 / chroma_me=1 / trellis=0 / 8x8dct=0 / cqm=0 / deadzone=21,11 / chroma_qp_offset=-2 / threads=6 / nr=0 / decimate=1 / mbaff=0 / bframes=0 / keyint=250 / keyint_min=25 / scenecut=40 / rc=2pass / bitrate=3200 / ratetol=1.0 / qcomp=0.60 / qpmin=10 / qpmax=51 / qpstep=4 / cplxblur=20.0 / qblur=0.5 / ip_ratio=1.40 / aq=1:1.00
Default : Да
Forced : Нет

Аудио
Идентификатор : 2
Формат : AC-3
Формат/Информация : Audio Coding 3
Расширение режима : CM (complete main)
Параметр Endianness формата : Big
Идентификатор кодека : A_AC3
Продолжительность : 7 м. 6 с.
Вид битрейта : Постоянный
Битрейт : 448 Кбит/сек
Каналы : 2 канала
Original Channel count : 6 каналов
Расположение каналов : Front: L C R, Side: L R, LFE
Частота : 48,0 КГц
Битовая глубина : 16 бит
Метод сжатия : С потерями
Размер потока : 22,8 Мбайт (12%)
Default : Да
Forced : Нет

Общее
Уникальный идентификатор : 246641429086094103582972505867398466462 (0xB98D695038C575149D4022A87DFCCB9E)
Полное имя : S:\Проект Практическая робототехника на базе Ардуино\Проект Arduino для младших школьников - 6 серия.mkv
Формат : Matroska
Версия формата : Version 1
Размер файла : 239 Мбайт
Продолжительность : 9 м. 8 с.
Общий поток : 3650 Кбит/сек
Дата кодирования : UTC 2013-10-19 20:04:14
Программа кодирования : mkvmerge v2.4.0 ('Fumbling Towards Ecstasy') built on Oct 11 2008 20:13:15
Библиотека кодирования : libebml v0.7.7 + libmatroska v0.8.1

Видео
Идентификатор : 1
Формат : AVC
Формат/Информация : Advanced Video Codec
Профиль формата : Baseline@L3.0
Параметр CABAC формата : Нет
Параметр ReFrames формата : 1 кадр
Идентификатор кодека : V_MPEG4/ISO/AVC
Продолжительность : 9 м. 8 с.
Битрейт : 3200 Кбит/сек
Ширина : 1280 пикселей
Высота : 720 пикселей
Соотношение сторон : 16:9
Режим частоты кадров : Постоянный
Частота кадров : 25,000 кадров/сек
Цветовое пространство : YUV
Субдискретизация насыщенности : 4:2:0
Битовая глубина : 8 бит
Тип развёртки : Прогрессивная
Бит/(Пиксели*Кадры) : 0.139
Размер потока : 205 Мбайт (86%)
Библиотека кодирования : x264 core 67 r1163+17 7d945df
Настройки программы : cabac=0 / ref=1 / deblock=1:0:0 / analyse=0x1:0x111 / me=hex / subme=6 / psy_rd=1.0:0.0 / mixed_ref=0 / me_range=16 / chroma_me=1 / trellis=0 / 8x8dct=0 / cqm=0 / deadzone=21,11 / chroma_qp_offset=-2 / threads=6 / nr=0 / decimate=1 / mbaff=0 / bframes=0 / keyint=250 / keyint_min=25 / scenecut=40 / rc=2pass / bitrate=3200 / ratetol=1.0 / qcomp=0.60 / qpmin=10 / qpmax=51 / qpstep=4 / cplxblur=20.0 / qblur=0.5 / ip_ratio=1.40 / aq=1:1.00
Default : Да
Forced : Нет

Аудио
Идентификатор : 2
Формат : AC-3
Формат/Информация : Audio Coding 3
Расширение режима : CM (complete main)
Параметр Endianness формата : Big
Идентификатор кодека : A_AC3
Продолжительность : 9 м. 8 с.
Вид битрейта : Постоянный
Битрейт : 448 Кбит/сек
Каналы : 2 канала
Original Channel count : 6 каналов
Расположение каналов : Front: L C R, Side: L R, LFE
Частота : 48,0 КГц
Битовая глубина : 16 бит
Метод сжатия : С потерями
Размер потока : 29,3 Мбайт (12%)
Default : Да
Forced : Нет

Общее
Уникальный идентификатор : 212314062330788511675225815767527025674 (0x9FBA33766C3356FABBA4F81E622D6C0A)
Полное имя : S:\Проект Практическая робототехника на базе Ардуино\Проект Arduino для младших школьников - 7 серия.mkv
Формат : Matroska
Версия формата : Version 1
Размер файла : 390 Мбайт
Продолжительность : 14 м.
Общий поток : 3650 Кбит/сек
Дата кодирования : UTC 2013-10-20 04:11:17
Программа кодирования : mkvmerge v2.4.0 ('Fumbling Towards Ecstasy') built on Oct 11 2008 20:13:15
Библиотека кодирования : libebml v0.7.7 + libmatroska v0.8.1

Видео
Идентификатор : 1
Формат : AVC
Формат/Информация : Advanced Video Codec
Профиль формата : Baseline@L3.0
Параметр CABAC формата : Нет
Параметр ReFrames формата : 1 кадр
Идентификатор кодека : V_MPEG4/ISO/AVC
Продолжительность : 14 м.
Битрейт : 3200 Кбит/сек
Ширина : 1280 пикселей
Высота : 720 пикселей
Соотношение сторон : 16:9
Режим частоты кадров : Постоянный
Частота кадров : 25,000 кадров/сек
Цветовое пространство : YUV
Субдискретизация насыщенности : 4:2:0
Битовая глубина : 8 бит
Тип развёртки : Прогрессивная
Бит/(Пиксели*Кадры) : 0.139
Размер потока : 334 Мбайт (86%)
Библиотека кодирования : x264 core 67 r1163+17 7d945df
Настройки программы : cabac=0 / ref=1 / deblock=1:0:0 / analyse=0x1:0x111 / me=hex / subme=6 / psy_rd=1.0:0.0 / mixed_ref=0 / me_range=16 / chroma_me=1 / trellis=0 / 8x8dct=0 / cqm=0 / deadzone=21,11 / chroma_qp_offset=-2 / threads=6 / nr=0 / decimate=1 / mbaff=0 / bframes=0 / keyint=250 / keyint_min=25 / scenecut=40 / rc=2pass / bitrate=3200 / ratetol=1.0 / qcomp=0.60 / qpmin=10 / qpmax=51 / qpstep=4 / cplxblur=20.0 / qblur=0.5 / ip_ratio=1.40 / aq=1:1.00
Default : Да
Forced : Нет

Аудио
Идентификатор : 2
Формат : AC-3
Формат/Информация : Audio Coding 3
Расширение режима : CM (complete main)
Параметр Endianness формата : Big
Идентификатор кодека : A_AC3
Продолжительность : 14 м.
Вид битрейта : Постоянный
Битрейт : 448 Кбит/сек
Каналы : 2 канала
Original Channel count : 6 каналов
Расположение каналов : Front: L C R, Side: L R, LFE
Частота : 48,0 КГц
Битовая глубина : 16 бит
Метод сжатия : С потерями
Размер потока : 47,8 Мбайт (12%)
Default : Да
Forced : Нет

Общее
Уникальный идентификатор : 209757858951313113513318449987655728941 (0x9DCDE4E7D536C2AD998893757DF67F2D)
Полное имя : S:\Проект Практическая робототехника на базе Ардуино\Проект Arduino для младших школьников - 5 серия.mkv
Формат : Matroska
Версия формата : Version 1
Размер файла : 239 Мбайт
Продолжительность : 9 м. 8 с.
Общий поток : 3649 Кбит/сек
Дата кодирования : UTC 2013-10-19 19:49:15
Программа кодирования : mkvmerge v2.4.0 ('Fumbling Towards Ecstasy') built on Oct 11 2008 20:13:15
Библиотека кодирования : libebml v0.7.7 + libmatroska v0.8.1

Видео
Идентификатор : 1
Формат : AVC
Формат/Информация : Advanced Video Codec
Профиль формата : Baseline@L3.0
Параметр CABAC формата : Нет
Параметр ReFrames формата : 1 кадр
Идентификатор кодека : V_MPEG4/ISO/AVC
Продолжительность : 9 м. 8 с.
Битрейт : 3200 Кбит/сек
Ширина : 1280 пикселей
Высота : 720 пикселей
Соотношение сторон : 16:9
Режим частоты кадров : Постоянный
Частота кадров : 25,000 кадров/сек
Цветовое пространство : YUV
Субдискретизация насыщенности : 4:2:0
Битовая глубина : 8 бит
Тип развёртки : Прогрессивная
Бит/(Пиксели*Кадры) : 0.139
Размер потока : 205 Мбайт (86%)
Библиотека кодирования : x264 core 67 r1163+17 7d945df
Настройки программы : cabac=0 / ref=1 / deblock=1:0:0 / analyse=0x1:0x111 / me=hex / subme=6 / psy_rd=1.0:0.0 / mixed_ref=0 / me_range=16 / chroma_me=1 / trellis=0 / 8x8dct=0 / cqm=0 / deadzone=21,11 / chroma_qp_offset=-2 / threads=6 / nr=0 / decimate=1 / mbaff=0 / bframes=0 / keyint=250 / keyint_min=25 / scenecut=40 / rc=2pass / bitrate=3200 / ratetol=1.0 / qcomp=0.60 / qpmin=10 / qpmax=51 / qpstep=4 / cplxblur=20.0 / qblur=0.5 / ip_ratio=1.40 / aq=1:1.00
Default : Да
Forced : Нет

Аудио
Идентификатор : 2
Формат : AC-3
Формат/Информация : Audio Coding 3
Расширение режима : CM (complete main)
Параметр Endianness формата : Big
Идентификатор кодека : A_AC3
Продолжительность : 9 м. 8 с.
Вид битрейта : Постоянный
Битрейт : 448 Кбит/сек
Каналы : 2 канала
Original Channel count : 6 каналов
Расположение каналов : Front: L C R, Side: L R, LFE
Частота : 48,0 КГц
Битовая глубина : 16 бит
Метод сжатия : С потерями
Размер потока : 29,3 Мбайт (12%)
Default : Да
Forced : Нет

Общее
Уникальный идентификатор : 230195826516836571961736646038639250513 (0xAD2E1A8158C35DD9B1B62200238E8C51)
Полное имя : S:\Проект Практическая робототехника на базе Ардуино\Проект Arduino для младших школьников - 2 серия.mkv
Формат : Matroska
Версия формата : Version 1
Размер файла : 261 Мбайт
Продолжительность : 9 м. 59 с.
Общий поток : 3650 Кбит/сек
Дата кодирования : UTC 2013-10-13 15:10:13
Программа кодирования : mkvmerge v2.4.0 ('Fumbling Towards Ecstasy') built on Oct 11 2008 20:13:15
Библиотека кодирования : libebml v0.7.7 + libmatroska v0.8.1

Видео
Идентификатор : 1
Формат : AVC
Формат/Информация : Advanced Video Codec
Профиль формата : Baseline@L3.0
Параметр CABAC формата : Нет
Параметр ReFrames формата : 1 кадр
Идентификатор кодека : V_MPEG4/ISO/AVC
Продолжительность : 9 м. 59 с.
Битрейт : 3200 Кбит/сек
Ширина : 1280 пикселей
Высота : 720 пикселей
Соотношение сторон : 16:9
Режим частоты кадров : Постоянный
Частота кадров : 25,000 кадров/сек
Цветовое пространство : YUV
Субдискретизация насыщенности : 4:2:0
Битовая глубина : 8 бит
Тип развёртки : Прогрессивная
Бит/(Пиксели*Кадры) : 0.139
Размер потока : 223 Мбайт (86%)
Библиотека кодирования : x264 core 67 r1163+17 7d945df
Настройки программы : cabac=0 / ref=1 / deblock=1:0:0 / analyse=0x1:0x111 / me=hex / subme=6 / psy_rd=1.0:0.0 / mixed_ref=0 / me_range=16 / chroma_me=1 / trellis=0 / 8x8dct=0 / cqm=0 / deadzone=21,11 / chroma_qp_offset=-2 / threads=6 / nr=0 / decimate=1 / mbaff=0 / bframes=0 / keyint=250 / keyint_min=25 / scenecut=40 / rc=2pass / bitrate=3200 / ratetol=1.0 / qcomp=0.60 / qpmin=10 / qpmax=51 / qpstep=4 / cplxblur=20.0 / qblur=0.5 / ip_ratio=1.40 / aq=1:1.00
Default : Да
Forced : Нет

Аудио
Идентификатор : 2
Формат : AC-3
Формат/Информация : Audio Coding 3
Расширение режима : CM (complete main)
Параметр Endianness формата : Big
Идентификатор кодека : A_AC3
Продолжительность : 9 м. 59 с.
Вид битрейта : Постоянный
Битрейт : 448 Кбит/сек
Каналы : 2 канала
Original Channel count : 6 каналов
Расположение каналов : Front: L C R, Side: L R, LFE
Частота : 48,0 КГц
Битовая глубина : 16 бит
Метод сжатия : С потерями
Размер потока : 32,0 Мбайт (12%)
Default : Да
Forced : Нет

Общее
Уникальный идентификатор : 231081592132133978159794645814658718627 (0xADD8B21F30337C09ACD597D43C57DBA3)
Полное имя : S:\Проект Практическая робототехника на базе Ардуино\Проект Arduino для младших школьников - 3 серия.mkv
Формат : Matroska
Версия формата : Version 1
Размер файла : 198 Мбайт
Продолжительность : 7 м. 34 с.
Общий поток : 3649 Кбит/сек
Дата кодирования : UTC 2013-10-13 15:22:38
Программа кодирования : mkvmerge v2.4.0 ('Fumbling Towards Ecstasy') built on Oct 11 2008 20:13:15
Библиотека кодирования : libebml v0.7.7 + libmatroska v0.8.1

Видео
Идентификатор : 1
Формат : AVC
Формат/Информация : Advanced Video Codec
Профиль формата : Baseline@L3.0
Параметр CABAC формата : Нет
Параметр ReFrames формата : 1 кадр
Идентификатор кодека : V_MPEG4/ISO/AVC
Продолжительность : 7 м. 34 с.
Битрейт : 3200 Кбит/сек
Ширина : 1280 пикселей
Высота : 720 пикселей
Соотношение сторон : 16:9
Режим частоты кадров : Постоянный
Частота кадров : 25,000 кадров/сек
Цветовое пространство : YUV
Субдискретизация насыщенности : 4:2:0
Битовая глубина : 8 бит
Тип развёртки : Прогрессивная
Бит/(Пиксели*Кадры) : 0.139
Размер потока : 169 Мбайт (86%)
Библиотека кодирования : x264 core 67 r1163+17 7d945df
Настройки программы : cabac=0 / ref=1 / deblock=1:0:0 / analyse=0x1:0x111 / me=hex / subme=6 / psy_rd=1.0:0.0 / mixed_ref=0 / me_range=16 / chroma_me=1 / trellis=0 / 8x8dct=0 / cqm=0 / deadzone=21,11 / chroma_qp_offset=-2 / threads=6 / nr=0 / decimate=1 / mbaff=0 / bframes=0 / keyint=250 / keyint_min=25 / scenecut=40 / rc=2pass / bitrate=3200 / ratetol=1.0 / qcomp=0.60 / qpmin=10 / qpmax=51 / qpstep=4 / cplxblur=20.0 / qblur=0.5 / ip_ratio=1.40 / aq=1:1.00
Default : Да
Forced : Нет

Аудио
Идентификатор : 2
Формат : AC-3
Формат/Информация : Audio Coding 3
Расширение режима : CM (complete main)
Параметр Endianness формата : Big
Идентификатор кодека : A_AC3
Продолжительность : 7 м. 34 с.
Вид битрейта : Постоянный
Битрейт : 448 Кбит/сек
Каналы : 2 канала
Original Channel count : 6 каналов
Расположение каналов : Front: L C R, Side: L R, LFE
Частота : 48,0 КГц
Битовая глубина : 16 бит
Метод сжатия : С потерями
Размер потока : 24,3 Мбайт (12%)
Default : Да
Forced : Нет

Общее
Уникальный идентификатор : 235170589809376033689100974313163853569 (0xB0EC3545BBF079B18DACF5686A560F01)
Полное имя : S:\Проект Практическая робототехника на базе Ардуино\Проект Arduino для младших школьников - 8 серия.mkv
Формат : Matroska
Версия формата : Version 1
Размер файла : 305 Мбайт
Продолжительность : 11 м.
Общий поток : 3651 Кбит/сек
Дата кодирования : UTC 2013-10-20 04:31:19
Программа кодирования : mkvmerge v2.4.0 ('Fumbling Towards Ecstasy') built on Oct 11 2008 20:13:15
Библиотека кодирования : libebml v0.7.7 + libmatroska v0.8.1

Видео
Идентификатор : 1
Формат : AVC
Формат/Информация : Advanced Video Codec
Профиль формата : Baseline@L3.0
Параметр CABAC формата : Нет
Параметр ReFrames формата : 1 кадр
Идентификатор кодека : V_MPEG4/ISO/AVC
Продолжительность : 11 м.
Битрейт : 3200 Кбит/сек
Ширина : 1280 пикселей
Высота : 720 пикселей
Соотношение сторон : 16:9
Режим частоты кадров : Постоянный
Частота кадров : 25,000 кадров/сек
Цветовое пространство : YUV
Субдискретизация насыщенности : 4:2:0
Битовая глубина : 8 бит
Тип развёртки : Прогрессивная
Бит/(Пиксели*Кадры) : 0.139
Размер потока : 261 Мбайт (86%)
Библиотека кодирования : x264 core 67 r1163+17 7d945df
Настройки программы : cabac=0 / ref=1 / deblock=1:0:0 / analyse=0x1:0x111 / me=hex / subme=6 / psy_rd=1.0:0.0 / mixed_ref=0 / me_range=16 / chroma_me=1 / trellis=0 / 8x8dct=0 / cqm=0 / deadzone=21,11 / chroma_qp_offset=-2 / threads=6 / nr=0 / decimate=1 / mbaff=0 / bframes=0 / keyint=250 / keyint_min=25 / scenecut=40 / rc=2pass / bitrate=3200 / ratetol=1.0 / qcomp=0.60 / qpmin=10 / qpmax=51 / qpstep=4 / cplxblur=20.0 / qblur=0.5 / ip_ratio=1.40 / aq=1:1.00
Default : Да
Forced : Нет

Аудио
Идентификатор : 2
Формат : AC-3
Формат/Информация : Audio Coding 3
Расширение режима : CM (complete main)
Параметр Endianness формата : Big
Идентификатор кодека : A_AC3
Продолжительность : 11 м.
Вид битрейта : Постоянный
Битрейт : 448 Кбит/сек
Каналы : 2 канала
Original Channel count : 6 каналов
Расположение каналов : Front: L C R, Side: L R, LFE
Частота : 48,0 КГц
Битовая глубина : 16 бит
Метод сжатия : С потерями
Размер потока : 37,4 Мбайт (12%)
Default : Да
Forced : Нет

Общее
Уникальный идентификатор : 230155329181241769129017376707072576713 (0xAD264DD51C134AC4BCAF2C2DD5714CC9)
Полное имя : S:\Проект Практическая робототехника на базе Ардуино\Проект Arduino для младших школьников - 1 серия.mkv
Формат : Matroska
Версия формата : Version 1
Размер файла : 292 Мбайт
Продолжительность : 11 м.
Общий поток : 3649 Кбит/сек
Дата кодирования : UTC 2013-10-13 14:53:52
Программа кодирования : mkvmerge v2.4.0 ('Fumbling Towards Ecstasy') built on Oct 11 2008 20:13:15
Библиотека кодирования : libebml v0.7.7 + libmatroska v0.8.1

Видео
Идентификатор : 1
Формат : AVC
Формат/Информация : Advanced Video Codec
Профиль формата : Baseline@L3.0
Параметр CABAC формата : Нет
Параметр ReFrames формата : 1 кадр
Идентификатор кодека : V_MPEG4/ISO/AVC
Продолжительность : 11 м.
Битрейт : 3200 Кбит/сек
Ширина : 1280 пикселей
Высота : 720 пикселей
Соотношение сторон : 16:9
Режим частоты кадров : Постоянный
Частота кадров : 25,000 кадров/сек
Цветовое пространство : YUV
Субдискретизация насыщенности : 4:2:0
Битовая глубина : 8 бит
Тип развёртки : Прогрессивная
Бит/(Пиксели*Кадры) : 0.139
Размер потока : 250 Мбайт (86%)
Библиотека кодирования : x264 core 67 r1163+17 7d945df
Настройки программы : cabac=0 / ref=1 / deblock=1:0:0 / analyse=0x1:0x111 / me=hex / subme=6 / psy_rd=1.0:0.0 / mixed_ref=0 / me_range=16 / chroma_me=1 / trellis=0 / 8x8dct=0 / cqm=0 / deadzone=21,11 / chroma_qp_offset=-2 / threads=6 / nr=0 / decimate=1 / mbaff=0 / bframes=0 / keyint=250 / keyint_min=25 / scenecut=40 / rc=2pass / bitrate=3200 / ratetol=1.0 / qcomp=0.60 / qpmin=10 / qpmax=51 / qpstep=4 / cplxblur=20.0 / qblur=0.5 / ip_ratio=1.40 / aq=1:1.00
Default : Да
Forced : Нет

Аудио
Идентификатор : 2
Формат : AC-3
Формат/Информация : Audio Coding 3
Расширение режима : CM (complete main)
Параметр Endianness формата : Big
Идентификатор кодека : A_AC3
Продолжительность : 11 м.
Вид битрейта : Постоянный
Битрейт : 448 Кбит/сек
Каналы : 2 канала
Original Channel count : 6 каналов
Расположение каналов : Front: L C R, Side: L R, LFE
Частота : 48,0 КГц
Битовая глубина : 16 бит
Метод сжатия : С потерями
Размер потока : 35,8 Мбайт (12%)
Default : Да
Forced : Нет
Качество: Cam
Формат: MKV
Видео кодек: H.264
Аудио кодек: AC3
Видео: AVC 1280x720, 3200 kbps, 25 fps
Аудио: AC3 448 kbps 48kHz 5.1
Урок 1. "Маячок"

Урок 2. "Маячок с нарастающей яркостью"

Урок 3. "Светильник с управляемой яркостью"

Урок 4. "Терменвокс"

Урок 5. "Ночной светильник"

Урок 6. "Пульсар"

Урок 7. "Бегущий огонёк"

Урок 8. "Мерзкое пианино"

Урок 9. "Миксер"

Урок 10. "Кнопочный переключатель"

Урок 11. "Кнопочные ковбои"

Урок 12. "Секундомер"

Урок заключительный "Робот - Вездеход Лидер c Bluetooth/WiFi"
Правила, инструкции, FAQ!!!
Торрент  Добавлен [20 сен 2014, 00:07] Скачать торрент
Скачать торрент
[ Размер 23.43 КБ / Просмотров 151 ]

Статус
Проверен 
 
Размер  3.65 ГБ
Приватный: Нет (DHT включён)
.torrent скачан  28
Как залить торрент? | Как скачать Torrent? | Как смотреть и слушать онлайн?  
Гость
 


Вернуться в Обучающие издания для детей

Кто сейчас на конференции

Сейчас этот форум просматривают: нет зарегистрированных пользователей и гости: 0

   Наша команда  Удалить cookies конференции • Часовой пояс: UTC + 3 часа

Пользовательское соглашение  |  Для правообладателей  | 

croncron