Почемучка: Астрономия / Сезон 3 / Серии 1 - 26 (26) [2013, астрономия, SATRip, RUS] (Видеоурок)


Статистика раздачи
Размер: 4.67 ГБ | Добавлен: 28 янв 2015, 00:07 | Скачали: 16
Сидеров: 548  [0 байт/сек]    Личеров: 17  [0 байт/сек]

Сообщение Гость » 28 янв 2015, 00:07

Почемучка

Страна: Россия
Тематика: Астрономия
Тип раздаваемого материала: Видеоурок
Продолжительность: ~ 00:13:26
Год выпуска: 2013

Язык: Русский
Перевод: Не требуется

Язык субтитров: Отсутствуют
Описание: Уже знакомые зрителям канала «Карусель» персонажи программы «Почемучка» решают изучить мир, который находится за пределами их обычного жилья — старого компьютера. Более того, Процессор, Бит, Байт, Память, Контроллер и Вирус хотят изучить мир, находящийся за пределами планеты Земля. Их интересуют вопросы, которые задает каждый человек, поднимая глаза к небу: «Что такое звезды?», «Как устроена Вселенная?», «Каким образом все это можно изучить?». На все эти вопросы друзьям ответит наука астрономия. С ее помощью жители компьютера постигают тайны галактики, путешествуют между звезд, проникают внутрь планет. А с помощью специальных «объяснялок» зрители еще лучше поймут то, что наши герои увидели в телескоп. Ведь компьютер с обитателями находится как раз в большой обсерватории с телескопом, и когда оттуда уходят люди, Процессор и его коллеги удовлетворяют свое любопытство.
01. Как зарождалась астрономия
02. Что такое планета?
03. Адреса светил на небе
04. Созвездия
05. Меркурий
06. Что такое звезда?
07. Звёздные мерки
08. Венера
09. Взрывающиеся звезды: новые и сверхновые
10. Двойные, кратные и переменные звёзды
11. Планета Земля
12. Астероиды
13. Астрономия в средние века
14. Марс
15. Нейтронные звёзды и чёрные дыры
16. Луна
17. Юпитер
18. Звездное небо разных широт
19. Как астрономы изучают Вселенную
20. Видимый путь Солнца: суточный и годичный
21. Сатурн
22. Какое бывает время
23. Движение Луны по небу и её фазы
24. Кольца Сатурна
25. Способы измерения времени
26. Лунные и солнечные затмения
Качество: SATRip
Формат: AVI
Видео кодек: XviD
Аудио кодек: AC3
Видео: XviD; 1788 Кбит/сек; 704х528 (4:3); 25,000 кадр/сек
Аудио: AC-3; 128 Кбит/сек; 2 канала(ов); 48,0 КГц
Общее
Полное имя : E:\закачки\Почемучка (3-й сезон) [rutracker.ru]\01) Как зарождалась астрономим.avi
Формат : AVI
Формат/Информация : Audio Video Interleave
Размер файла : 186 Мбайт
Продолжительность : 13 м.
Общий поток : 1930 Кбит/сек
Режиссёр : SATRip by Thunder
Программа кодирования : VirtualDubMod 1.5.10.3 | www.virtualdub-fr.org || (build 2550/release)

Видео
Идентификатор : 0
Формат : MPEG-4 Visual
Профиль формата : Advanced Simple@L5
Параметр BVOP формата : 2
Параметр QPel формата : Нет
Параметр GMC формата : Без точки перехода
Параметр матрицы формата : Default (H.263)
Идентификатор кодека : XVID
Идентификатор кодека/Подсказка : XviD
Продолжительность : 13 м.
Битрейт : 1792 Кбит/сек
Ширина : 704 пикселя
Высота : 528 пикселей
Соотношение сторон : 4:3
Частота кадров : 25,000 кадров/сек
Цветовое пространство : YUV
Субдискретизация насыщенности : 4:2:0
Битовая глубина : 8 бит
Тип развёртки : Прогрессивная
Метод сжатия : С потерями
Бит/(Пиксели*Кадры) : 0.193
Размер потока : 172 Мбайт (93%)
Библиотека кодирования : XviD 1.2.1 (UTC 2008-12-04)

Аудио
Идентификатор : 1
Формат : AC-3
Формат/Информация : Audio Coding 3
Расширение режима : CM (complete main)
Параметр Endianness формата : Big
Идентификатор кодека : 2000
Продолжительность : 13 м.
Вид битрейта : Постоянный
Битрейт : 128 Кбит/сек
Каналы : 2 канала
Расположение каналов : Front: L R
Частота : 48,0 КГц
Битовая глубина : 16 бит
Метод сжатия : С потерями
Размер потока : 12,3 Мбайт (7%)
Выравнивание : Разделение по промежуткам
Продолжительность промежутка : 40 мс. (1,00 видеокадр)
Время предзагрузки промежутка : 500 мс.
26.08.14. Добавил новые серии
Правила, инструкции, FAQ!!!
Торрент  Добавлен [28 янв 2015, 00:07] Скачать торрент
Скачать торрент
[ Размер 25.71 КБ / Просмотров 101 ]

Статус
Проверен 
 
Размер  4.67 ГБ
Приватный: Нет (DHT включён)
.torrent скачан  16
Как залить торрент? | Как скачать Torrent? | Как смотреть и слушать онлайн?  
Гость
 


Вернуться в Обучающие издания для детей

Кто сейчас на конференции

Сейчас этот форум просматривают: нет зарегистрированных пользователей и гости: 0

   Наша команда  Удалить cookies конференции • Часовой пояс: UTC + 3 часа

Пользовательское соглашение  |  Для правообладателей  | 

cron