Пластилинки - Азбука (А-Т) [2013, Азбука, WEBRip, RUS] (Видеоурок)


Статистика раздачи
Размер: 336.77 МБ | Добавлен: 20 сен 2014, 00:09 | Скачали: 26
Сидеров: 299  [0 байт/сек]    Личеров: 14  [0 байт/сек]

Сообщение Гость » 20 сен 2014, 00:09

Пластилинки - Азбука (А-Т)

Страна: Россия
Тематика: Азбука
Тип раздаваемого материала: Видеоурок
Продолжительность: 00:01:40
Год выпуска: 2013
Режиссер: Сергей Меринов

Язык: Русский
Перевод: Не требуется

Описание: "Пластилиновая азбука" из проекта "Пластилинки-Азбука"
«Пластилинки. Азбука» - отечественный познавательный мультсериал, который в доступной форме игры-сказки знакомит малышей с буквами русского алфавита. Веселые пластилиновые герои помогают малышам не заблудиться в удивительном мире знаний. В каждой серии дошкольники осваивают буквы и новые слова из разных сфер жизни.

Качество: WEBRip
Формат: MP4
Видео кодек: MPEG1
Аудио кодек: AAC
Видео: 1474 Кбит/сек, 1280*720 (16:9), AVC
Аудио: 192 Кбит/сек, 44,1 КГц, 2 канала, AAC (LC)
Общее
Полное имя : D:\Видео\Мультики\Пластилинки\Буква И.mp4
Формат : MPEG-4
Профиль формата : Base Media / Version 2
Идентификатор кодека : mp42
Размер файла : 30,9 Мбайт
Продолжительность : 1 м. 40 с.
Режим общего битрейта : Переменный
Общий поток : 2581 Кбит/сек
Дата кодирования : UTC 2013-11-30 04:50:56
Дата пометки : UTC 2013-11-30 04:50:56
gsst : 0
gstd : 100448
gssd : B4A7DA2E3MH1389160052806812
gshh : r10---sn-4g57kn6l.googlevideo.com

Видео
Идентификатор : 1
Формат : AVC
Формат/Информация : Advanced Video Codec
Профиль формата : High@L3.1
Параметр CABAC формата : Да
Параметр ReFrames формата : 1 кадр
Параметр GOP формата : N=1
Идентификатор кодека : avc1
Идентификатор кодека/Информация : Advanced Video Coding
Продолжительность : 1 м. 40 с.
Битрейт : 2386 Кбит/сек
Максимальный битрейт : 7692 Кбит/сек
Ширина : 1280 пикселей
Высота : 720 пикселей
Соотношение сторон : 16:9
Режим частоты кадров : Постоянный
Частота кадров : 25,000 кадров/сек
Цветовое пространство : YUV
Субдискретизация насыщенности : 4:2:0
Битовая глубина : 8 бит
Тип развёртки : Прогрессивная
Бит/(Пиксели*Кадры) : 0.104
Размер потока : 28,6 Мбайт (92%)
Дата пометки : UTC 2013-11-30 04:50:57

Аудио
Идентификатор : 2
Формат : AAC
Формат/Информация : Advanced Audio Codec
Профиль формата : LC
Идентификатор кодека : 40
Продолжительность : 1 м. 40 с.
Вид битрейта : Переменный
Битрейт : 192 Кбит/сек
Максимальный битрейт : 202 Кбит/сек
Каналы : 2 канала
Расположение каналов : Front: L R
Частота : 44,1 КГц
Метод сжатия : С потерями
Размер потока : 2,30 Мбайт (7%)
Заголовок : IsoMedia File Produced by Google, 5-11-2011
Дата кодирования : UTC 2013-11-30 04:50:57
Дата пометки : UTC 2013-11-30 04:50:57
Правила, инструкции, FAQ!!!
Торрент  Добавлен [20 сен 2014, 00:09] Скачать торрент
Скачать торрент
[ Размер 14.8 КБ / Просмотров 129 ]

Статус
Проверен 
 
Размер  336.77 МБ
Приватный: Нет (DHT включён)
.torrent скачан  26
Как залить торрент? | Как скачать Torrent? | Как смотреть и слушать онлайн?  
Гость
 


Вернуться в Обучающие издания для детей

Кто сейчас на конференции

Сейчас этот форум просматривают: нет зарегистрированных пользователей и гости: 0

   Наша команда  Удалить cookies конференции • Часовой пояс: UTC + 3 часа

Пользовательское соглашение  |  Для правообладателей  | 

cron