Philizz - Сборник клипов "Video YearMix" (2014) HDTV 1080p


Статистика раздачи
Размер: 4.72 ГБ | Добавлен: 25 дек 2014, 23:49 | Скачали: 7
Сидеров: 11  [0 байт/сек]    Личеров: 76  [0 байт/сек]

Сообщение Гость » 25 дек 2014, 23:49

Оригинальное название: Philizz Video YearMix
Год выхода: 2014
Жанр: Pop, Club, Dance, Video-Megamix
О фильме:
Сборник клипов "YEARMIX-2014": все закручено и заверчено фирменным миксом от голландского ви-джея Philizz.
"YEARMIX-2014" - это своего рода обзор лучших клипов уходящего года по версии Philizz.
Приятного просмотра и с наступающим!


Страна: Нидерланды
Продолжительность: 00:58:14
Перевод: Оригинал (не требуется)
Качество: HDTV 1080p
Видео: MPEG-4, AVC, 1920x1080 (16:9), ~ 11300 Кбит/сек, 25.000 fps
Звук: AAC, 2ch, ~ 317 Kbps, 48000Hz



2014
One Direction - Steal My Girl
Taylor Swift - Shake It Off
Little Mix - Little Me
Iggy Azalea ft. Rita Ora - Black Widow
The - Superheroes
Sam Smith - Stay With Me
Aloe Blacc - The Man
Sia - Chandelier
David Guetta ft. Sam Martin - Dangerous
Maroon 5 - Animals
Katy Perry - This Is How We Do
Enrique Iglesias ft. Descemer Bueno - Bailando
Charli XCX - Boom Clap
Coldplay - Magic
Iggy Azalea ft. Charli XCX - Fancy
Taylor Swift - Blank Space
Sam Smith - I’m Not The Only One
Jake Miller - First Flight Home
Mapei - Don’t Wait
Ariana Grande ft. The Weeknd - Love Me Harder
Jennifer Lopez - First Love
Lorde - Team
Gwen Stefani - Baby Don’t Lie
Kygo & Kyla La Grange - Cut Your Teeth
Fifth Harmony - Sledgehammer
Ariana Grande ft. Iggy Azalea - Problem
Marlon Roudette - When The Beat Drops Out
5 Seconds Of Summer - Amnesia
Shawn Mendes - Something Big
Mark Ronson ft. Bruno Mars - Uptown Funk
Pharrell Williams - Marilyn Monroe
Michael Jackson ft. Justin Timberlake - Love Never Felt So Good
Elyar Fox - Do It All Over Again
Tiësto ft. Matthew Koma - Wasted
Nick Jonas - Jealous
Kiesza - No Enemiesz
Kiesza - Giant In My Heart
Milky Chance - Stolen Dance
Duke Dumont - Won’t Look Back
Clean Bandit ft. Jess Glynne - Rather Be
Tube & Berger, Juliet Sikora - Come On Now (Set It Off)
The Magician ft. Years & Years - Sunlight
Route 94 ft. Jess Glynne - My Love
Kiesza - Hideaway
Gorgon City ft. MNEK - Ready For Your Love
Pitbull ft. John Ryan - Fireball
Lilly Wood & The Prick ft. Robin Schulz - Prayer in C
Tove Lo - Habits (Stay High) (Hippie Sabotage Mix)
Duke Dumont ft. Jax Jones - I Got U
Becky G - Shower
OneRepublic - I Lived
Avicii - Addicted to You
Bucie ft. Heavy K - Easy to Love
Carlprit ft. Jaicko - Only Gets Better
Katy Perry - Birthday
Faul & Wad Ad vs. Pnau - Changes
Anders Nilsen - Salsa Tequila
Coldplay - A Sky Full Of Stars
Galantis - Runaway (U & I)
Katy Perry - Dark Horse
David Guetta & Showtek ft. Vassy - Bad
David Guetta ft. Skylar Grey - Shot Me Down
New World Sound & Thomas Newson - Flute
Duck Sauce - NRG
Frank & Jelte - Press.Play.Jump
Echosmith - Cool Kids
Carlprit ft. Jaicko - Remember To Forget
Nico & Vinz - Am I Wrong
Mr Probz - Waves
Jessie J ft. Ariana Grande & Nicki Minaj - Bang Bang
Calvin Harris ft. John Newman - Blame
Ariana Grande ft. Zedd - Break Free
B.o.B ft. Priscilla - John Doe
Nicki Minaj - Anaconda
The Chainsmokers - #SELFIE
AronChupa - I'm an Albatraoz
Firebeatz & KSHMR ft. Luciana - No Heroes
Fatboy Slim & Riva Starr ft. Beardyman - Eat Sleep Rave Repeat
Calvin Harris - Summer
Sam Smith - Money On My Mind
David Guetta ft. Sam Martin - Lovers On The Sun
Pitbull ft. Jennifer Lopez & Cláudia Leitte - We Are One (Ole Ola)
Austin Mahone ft. Pitbull - Mmm Yeah
Shakira ft. Rihanna - Can’t Remember to Forget You
Meghan Trainor - All About That Bass
Shakira - Dare (La La La)
Hardwell feat. Matthew Koma - Dare You
Rita Ora - I Will Never Let You Down
Timmy Trumpet & Savage - Freaks
Armin van Buuren - Hystereo
Meghan Trainor - Lips Are Movin’
Yellow Claw ft. Rochelle - Shotgun
Sigma - Nobody To Love
General
Complete name : Philizz.Yearmix.2014.HDTV1080p.mp4
Format : MPEG-4
Format profile : Base Media / Version 2
Codec ID : mp42
File size : 4.72 GiB
Duration : 58mn 14s
Overall bit rate mode : Variable
Overall bit rate : 11.6 Mbps
Encoded date : UTC 2014-12-17 14:53:27
Tagged date : UTC 2014-12-18 14:03:12
©TIM : 00:00:53:20
©TSC : 25
©TSZ : 1

Video
ID : 1
Format : AVC
Format/Info : Advanced Video Codec
Format profile : Main@L4.2
Format settings, CABAC : Yes
Format settings, ReFrames : 3 frames
Codec ID : avc1
Codec ID/Info : Advanced Video Coding
Duration : 58mn 14s
Bit rate : 11.3 Mbps
Width : 1 920 pixels
Height : 1 080 pixels
Display aspect ratio : 16:9
Frame rate mode : Constant
Frame rate : 25.000 fps
Standard : PAL
Color space : YUV
Chroma subsampling : 4:2:0
Bit depth : 8 bits
Scan type : Progressive
Bits/(Pixel*Frame) : 0.218
Stream size : 4.59 GiB (97%)
Language : English
Encoded date : UTC 2014-12-17 14:53:27
Tagged date : UTC 2014-12-17 14:53:27

Audio
ID : 2
Format : AAC
Format/Info : Advanced Audio Codec
Format profile : LC
Codec ID : 40
Duration : 58mn 14s
Source duration : 58mn 14s
Bit rate mode : Variable
Bit rate : 317 Kbps
Maximum bit rate : 422 Kbps
Channel(s) : 2 channels
Channel positions : Front: L R
Sampling rate : 48.0 KHz
Compression mode : Lossy
Stream size : 132 MiB (3%)
Source stream size : 132 MiB (3%)
Language : English
Encoded date : UTC 2014-12-17 14:53:27
Tagged date : UTC 2014-12-17 14:53:27
- Мегамикс - это видеосборник, составленный из небольших фрагментов клипов.
- Видеомикс - довольно новое, но уже популярное явление в современной музыкальной культуре,
насчитывающее всего несколько лет. Разбивка по трекам отсутствует.
Правила, инструкции, FAQ!!!
Торрент  Добавлен [25 дек 2014, 23:49] Скачать торрент
Скачать торрент
[ Размер 12.46 КБ / Просмотров 48 ]

Статус
Проверен 
 
Размер  4.72 ГБ
Приватный: Нет (DHT включён)
.torrent скачан  7
Как залить торрент? | Как скачать Torrent? | Как смотреть и слушать онлайн?  
Гость
 


Вернуться в Клипы (HD-Video)

Кто сейчас на конференции

Сейчас этот форум просматривают: нет зарегистрированных пользователей и гости: 0

   Наша команда  Удалить cookies конференции • Часовой пояс: UTC + 3 часа

Пользовательское соглашение  |  Для правообладателей  | 

cron