Philizz - Сборник клипов "Sunshine" (2013) HDTV 1080p


Статистика раздачи
Размер: 5.96 ГБ | Добавлен: 01 авг 2013, 11:40 | Скачали: 0
Сидеров: 0  [0 байт/сек]    Личеров: 4  [0 байт/сек]

Сообщение Гость » 01 авг 2013, 11:40

Название: Philizz Videomix
Оригинальное название: Philizz Videomix "Sunshine"
Выпуск: 3
Год выхода: 2013
Жанр: Pop, Club, Dance, Video-Megamix

О фильме:
Перед вами очередной третий сборник видеоклипов "Sunshine"
от голландского ви-джея Philizz.


Страна: Нидерланды
Продолжительность: 01:15:00
Перевод: Оригинал (не требуется)
Файл
Качество: MPEG-4, 1080p
Видео: AVC, ~11,1 Мбит/сек, 1920:1080, 16:9, 25.000 fps
Звук: AAC, 2ch, ~320 Kbps, 48000Hz
Размер: 5.96 GB
Сэмпл: Скачать

Дополнительная информация:
- Мегамикс - это видеосборник, составленный из небольших фрагментов клипов.
Видеомикс - довольно новое, но уже популярное явление в современной музыкальной культуре,
насчитывает всего несколько лет.
- Разбивка по трекам отсутствует.

Philizz Videomix 'Sunshine'

Philizz Videomix 2013
Volume 3 - 'Sunshine'

Austin Mahone – What About Love
Major Lazer ft. Busy Signal – Watch Out For This
Stromae – Papaoutai
Nelly – Hey Porsche
Daft Punk ft. Pharrell – Get Lucky
Robin Thicke ft. T.I. & Pharrell – Blurred Lines
Chris Malinchak – So Good To Me
Sharon Doorson – Killer
In-Grid – Tu Es Foutu
David Jones ft. Aqua Diva – Sunny
Milk & Sugar ft. Lizzy Patti – Let The Sun Shine
Inna – Be My Lover
Bryce ft. J-Malik – Body Rock
Lolita Jolie – Moi Lolita
Jennifer Lopez ft. Pitbull – Live It Up
DJ Sammy ft. The Jackie Boys – Shut Up And Kiss Me
Kelly Clarkson – People Like Us
One Direction – Best Song Ever
Yolanda Be Cool & Dcup – We No Speak Americano
The Ready Set – Give Me Your Hand
Xuso Jones – Turn On The Radio
Remady & Manu-L – Holidays
Taylor Jones – Forever In A Day
Jam & Spoon ft. Plavka vs. David May – Right In The Night
Calvin Harris ft Ellie Goulding – I Need Your Love
Timomatic – Parachute
Tom Pulse – Cuando
Alexandra Stan – Get Back
Stevie B ft. Pitbull – Spring Love
Samantha Jade – Firestarter
John Newman – Love Me Again
Serebro – Mi Mi Mi
Russ Chimes – Turn Me Out
The Sunclub – Boom Boom (Good Time)
The Underdog Project vs. Sunclub – Summer Jam
Bodybangers ft. Nicci & Linda Teodosiu – Are You Ready
Martin Solveig & The Cataracs ft. Kyle – Hey Now
Billy The Kit – Burn It Down
Alexandra Stan – All My People
R.I.O. ft. U-Jean – Ready Or Not
Sisse Marie ft. Yes-R – Till The Sun Comes Up
Avicii – Wake Me Up
Bastille – Pompeii
Hardwell & Dyro ft Bright Lights – Never Say Goodbye
Nicci – The Summer Is Magic
Loona – Vamos A La Playa
Jason Derulo – The Other Side
Henrik B, Niklas Gustavsson & Peter Johansson – Echoes
Rozalla ft David Anthony – Everybody’s Free
Vengaboys – Hot Hot Hot

Philizz Sunshine Bonus Mix:

Amfree ft. Ziya – Let Go
Sash ft. Rodriguez – Ecuador
Loona – Rakatakata (Un Rayo De Sol)
Georgina Verbaan – Ritmo
Sash – La Primavera
Lauren – O-Ayo
Wildstylez ft Niels Geusebroek – Year of Summer
Kaskade ft. Neon Trees – Lessons In Love (Headhunterz Mix)
Общее
Полное имя : Philizz Videomix 2013 Volume 3 - Sunshine (1080HD).mp4
Формат : MPEG-4
Профиль формата : Base Media / Version 2
Идентификатор кодека : mp42
Размер файла : 5,96 Гбайт
Продолжительность : 1 ч. 14 м.
Режим общего битрейта : Переменный
Общий поток : 11,4 Мбит/сек
Дата кодирования : UTC 2013-07-28 23:50:34
Дата пометки : UTC 2013-07-29 14:25:42
©TIM : 00:00:00:00
©TSC : 25
©TSZ : 1

Видео
Идентификатор : 1
Формат : AVC
Формат/Информация : Advanced Video Codec
Профиль формата : Main@L4.2
Параметр CABAC формата : Да
Параметр ReFrames формата : 3 кадра
Идентификатор кодека : avc1
Идентификатор кодека/Информация : Advanced Video Coding
Продолжительность : 1 ч. 14 м.
Продолжительность оригинала : 1 ч. 14 м.
Битрейт : 11,1 Мбит/сек
Ширина : 1920 пикселей
Высота : 1080 пикселей
Соотношение сторон : 16:9
Режим частоты кадров : Постоянный
Частота кадров : 25,000 кадров/сек
Стандарт вещания : PAL
Цветовое пространство : YUV
Субдискретизация насыщенности : 4:2:0
Битовая глубина : 8 бит
Тип развёртки : Прогрессивная
Бит/(Пиксели*Кадры) : 0.213
Размер потока : 5,79 Гбайт (97%)
Размер потока оригинала : 5,79 Гбайт (97%)
Язык : English
Дата кодирования : UTC 2013-07-28 23:50:34
Дата пометки : UTC 2013-07-28 23:50:34
mdhd_Duration : 4495500

Аудио
Идентификатор : 2
Формат : AAC
Формат/Информация : Advanced Audio Codec
Профиль формата : LC
Идентификатор кодека : 40
Продолжительность : 1 ч. 14 м.
Продолжительность оригинала : 1 ч. 15 м.
Вид битрейта : Переменный
Битрейт : 317 Кбит/сек
Максимальный битрейт : 420 Кбит/сек
Каналы : 2 канала
Расположение каналов : Front: L R
Частота : 48,0 КГц
Метод сжатия : С потерями
Размер потока : 170 Мбайт (3%)
Размер потока оригинала : 170 Мбайт (3%)
Язык : English
Дата кодирования : UTC 2013-07-28 23:50:35
Дата пометки : UTC 2013-07-28 23:50:35
Правила, инструкции, FAQ!!!
Торрент  Добавлен [01 авг 2013, 11:40] Скачать торрент
Скачать торрент
[ Размер 30.2 КБ / Просмотров 16 ]

Статус
Проверен 
 
Размер  5.96 ГБ
Приватный: Нет (DHT включён)
.torrent скачан  0
Как залить торрент? | Как скачать Torrent? | Как смотреть и слушать онлайн?  
Гость
 


Вернуться в Клипы (HD-Video)

Кто сейчас на конференции

Сейчас этот форум просматривают: нет зарегистрированных пользователей и гости: 0

   Наша команда  Удалить cookies конференции • Часовой пояс: UTC + 3 часа

Пользовательское соглашение  |  Для правообладателей  | 

cron