Оцеола: Правая рука возмездия / Osceola (1971) BDRip [H.264/720р-LQ]


Статистика раздачи
Размер: 2.33 ГБ | Добавлен: 02 сен 2017, 00:24 | Скачали: 4
Сидеров: 68  [0 байт/сек]    Личеров: 7  [0 байт/сек]

Сообщение Гость » 02 сен 2017, 00:24

Оцеола: Правая рука возмездия / Osceola (1971) BDRip [H.264/720р-LQ]

Производство: Германия (ГДР), Болгария, Куба / Киностудия Дефа, ИКАИК, Kino-Zentrum
Жанр: Драма, Вестерн

Режиссер: Конрад Петцольд, Джеймс Уинбёрн
Актеры: Гойко Митич, Хорст Шульце, Юрие Дарие, Карин Уговски, Кати Буш, Пепа Николова, Искра Радева, Обри Пэнки, Уильям Энич, Бубакар Туре

Описание:
Семинолы — единственное индейское племя, не подчинившееся приказу поселиться в резервациях. Они перебрались во Флориду и теперь занимаются там земледелием и скотоводством. Но этим недовольны белые плантаторы.
Во-первых, они претендуют на землю индейцев, во-вторых, все больше черных рабов сбегают к семинолам, и плантаторы боятся, что скоро на их плантациях некому будет работать.
Белый владелец лесопилки Мур родом с Севера, женат на семинолке, он за примирение и против рабства — так как убежден, что выгоднее иметь дело со свободными наемными рабочими.
Однако плантатор Рейне выступает за военную операцию для уничтожения индейцев. Вождь Оцеола понимает опасность и старается не реагировать на провокации белых. Но предотвратить войну ему не удается (1835 г.)

http://www.imdb.com/title/tt0070493/?ref_=plg_rt_1
Возраст: 12+ (зрителям, достигшим 12 лет)

Релиз от: Охрана (NNMCLUB)
Продолжительность: 01:44:21
Качество видео: BDRip
Перевод: Дублированный
Субтитры: Отсутствуют

Видео: AVC/H.264, 1280x544, ~2750 Kbps
Аудио 1: Русский, AC3, 2 ch, 256 Kbps, 48.0 kHz
Аудио 2: Немецкий, AC3, 2 ch, 192 Kbps, 48.0 kHz
Код: Выделить всё
General
Unique ID                                : 231056035276992190974668992271587220265 (0xADD3C61253805F3BA59828700AA81B29)
Complete name                            : F:\Downloads\Оцеола. Правая рука возмездия. 1971. NNMCLUB.mkv
Format                                   : Matroska
Format version                           : Version 4 / Version 2
File size                                : 2.33 GiB
Duration                                 : 1h 44mn
Overall bit rate                         : 3 200 Kbps
Encoded date                             : UTC 2017-08-23 21:54:03
Writing application                      : mkvmerge v7.0.0 ('Where We Going') 32bit built on Jun  9 2014 15:08:34
Writing library                          : libebml v1.3.0 + libmatroska v1.4.1
DURATION                                 : 01:44:14.400000000
NUMBER_OF_FRAMES                         : 195450
NUMBER_OF_BYTES                          : 150105600
_STATISTICS_WRITING_APP                  : mkvmerge v7.0.0 ('Where We Going') 32bit built on Jun  9 2014 15:08:34
_STATISTICS_WRITING_DATE_UTC             : 2017-08-23 21:54:03
_STATISTICS_TAGS                         : BPS DURATION NUMBER_OF_FRAMES NUMBER_OF_BYTES

Video
ID                                       : 1
Format                                   : AVC
Format/Info                              : Advanced Video Codec
Format profile                           :
Format settings, CABAC                   : Yes
Format settings, ReFrames                : 9 frames
Codec ID                                 : V_MPEG4/ISO/AVC
Duration                                 : 1h 44mn
Bit rate                                 : 2 750 Kbps
Width                                    : 1 280 pixels
Height                                   : 544 pixels
Display aspect ratio                     : 2.35:1
Frame rate mode                          : Constant
Frame rate                               : 25.000 fps
Color space                              : YUV
Chroma subsampling                       : 4:2:0
Bit depth                                : 8 bits
Scan type                                : Progressive
Bits/(Pixel*Frame)                       : 0.158
Stream size                              : 1.96 GiB (84%)
Title                                    : Osceola
Writing library                          : x264 core 125 r2208 d9d2288
Encoding settings                        : cabac=1 / ref=9 / deblock=1:-1:-1 / analyse=0x3:0x133 / me=umh / subme=10 / psy=1 / psy_rd=1.00:0.10 / mixed_ref=1 / me_range=32 / chroma_me=1 / trellis=2 / 8x8dct=1 / cqm=0 / deadzone=21,11 / fast_pskip=0 / chroma_qp_offset=-3 / threads=6 / lookahead_threads=1 / sliced_threads=0 / nr=0 / decimate=0 / interlaced=0 / bluray_compat=0 / constrained_intra=0 / bframes=8 / b_pyramid=2 / b_adapt=2 / b_bias=0 / direct=3 / weightb=1 / open_gop=0 / weightp=2 / keyint=250 / keyint_min=25 / scenecut=40 / intra_refresh=0 / rc_lookahead=60 / rc=2pass / mbtree=1 / bitrate=2750 / ratetol=1.0 / qcomp=0.60 / qpmin=0 / qpmax=69 / qpstep=4 / cplxblur=20.0 / qblur=0.5 / ip_ratio=1.40 / aq=1:1.00
Language                                 : German
Default                                  : Yes
Forced                                   : No

Audio #1
ID                                       : 2
Format                                   : AC-3
Format/Info                              : Audio Coding 3
Mode extension                           : CM (complete main)
Format settings, Endianness              : Big
Codec ID                                 : A_AC3
Duration                                 : 1h 44mn
Bit rate mode                            : Constant
Bit rate                                 : 256 Kbps
Channel(s)                               : 2 channels
Channel positions                        : Front: L R
Sampling rate                            : 48.0 KHz
Bit depth                                : 16 bits
Compression mode                         : Lossy
Stream size                              : 191 MiB (8%)
Title                                    : Дубляж
Language                                 : Russian
Default                                  : Yes
Forced                                   : No

Audio #2
ID                                       : 3
Format                                   : AC-3
Format/Info                              : Audio Coding 3
Mode extension                           : CM (complete main)
Format settings, Endianness              : Big
Codec ID                                 : A_AC3
Duration                                 : 1h 44mn
Bit rate mode                            : Constant
Bit rate                                 : 192 Kbps
Channel(s)                               : 2 channels
Channel positions                        : Front: L R
Sampling rate                            : 48.0 KHz
Bit depth                                : 16 bits
Compression mode                         : Lossy
Stream size                              : 143 MiB (6%)
Title                                    : Оригинал
Language                                 : German
Default                                  : No
Forced                                   : No
Полная версия фильма, имеются непереведённые места 8 минут

Скриншоты:



Время раздачи: с 13:00 до 01:00 МСК, выходные круглосуточно (до появления первых 3-5 скачавших)
Правила, инструкции, FAQ!!!
Торрент  Добавлен [02 сен 2017, 00:24] Скачать торрент
Скачать торрент
[ Размер 12.55 КБ / Просмотров 28 ]

Статус
Проверен 
 
Размер  2.33 ГБ
Приватный: Нет (DHT включён)
.torrent скачан  4
Как залить торрент? | Как скачать Torrent? | Как смотреть и слушать онлайн?  
Гость
 


Вернуться в Вестерн

Кто сейчас на конференции

Сейчас этот форум просматривают: нет зарегистрированных пользователей и гости: 0

   Наша команда  Удалить cookies конференции • Часовой пояс: UTC + 3 часа

Пользовательское соглашение  |  Для правообладателей  | 

cron