Обход Мика / Meek's Cutoff (2010) HDRip


Статистика раздачи
Размер: 1.46 ГБ | Добавлен: 26 апр 2015, 00:57 | Скачали: 112
Сидеров: 65  [0 байт/сек]    Личеров: 43  [0 байт/сек]

Сообщение Гость » 26 апр 2015, 00:57

Страна: США
Производство: Evenstar Films, Film Science, Harmony Productions
Жанр: Вестерн
Год выпуска: 2010
Продолжительность: 01:42:40
Перевод: Авторский (Сербин)
Оригинальная аудиодорожка: Английская
Режиссер: Келли Рейхардт

В ролях: Мишель Уильямс, Брюс Гринвуд, Уилл Пэттон, Зои Казан, Пол Дано, Ширли Хендерсон, Нил Хафф, Томми Нельсон

Описание: Фильм повествует о временах покорения Дикого Запада, когда в 1845 году по так называемой Орегонской тропе шло большое переселение с восточного на западное побережье Америки. В основе сюжета лежит рассказ о том, как три семьи переселенцев отстают от основного обоза и нанимают проводника Стивена Мика, прощелыгу и хвастуна с сотней фантастических историй в запасе, чтоб с его помощью кратчайшим путем добраться до гор и нагнать основную группу. В итоге, они оказываются где-то на бескрайнем плато, полностью без пищи, воды и какой-либо надежды на спасение....



Исходник: BDRip (720p)
Тип релиза: DVDRip
Контейнер: AVI
Видео: 640x480 (1.33:1), 23.976 fps, XviD MPEG-4 ~1379 kbps avg, 0.19 bit/pixel
Аудио 1: 48 kHz, AC3 Dolby Digital, 3/2 (L,R) ch, ~192 kbps (русский)
Аудио 2: 48 kHz, AC3 Dolby Digital, 3/2 (L,R) ch, ~1448 kbps (английский)

Общее
Полное имя : D:1АААОбход Мика.avi
Формат : AVI
Формат/Информация : Audio Video Interleave
Размер файла : 1,46 Гбайт
Продолжительность : 1 ч. 42 м.
Общий поток : 2034 Кбит/сек
Программа кодирования : VirtualDubMod 1.5.10.2 (build 2540/release)
Библиотека кодирования : VirtualDubMod build 2540/release

Видео
Идентификатор : 0
Формат : MPEG-4 Visual
Профиль формата : Advanced Simple@L5
Параметр BVOP формата : 2
Параметр QPel формата : Нет
Параметр GMC формата : Без точки перехода
Параметр матрицы формата : Default (MPEG)
Режим смешивания : Сжатый битовый поток
Идентификатор кодека : XVID
Идентификатор кодека/Подсказка : XviD
Продолжительность : 1 ч. 42 м.
Битрейт : 1380 Кбит/сек
Ширина : 640 пикселей
Высота : 480 пикселей
Соотношение сторон : 4:3
Частота кадров : 23,976 кадра/сек
Цветовое пространство : YUV
Субдискретизация насыщенности : 4:2:0
Битовая глубина : 8 бит
Тип развёртки : Прогрессивная
Метод сжатия : С потерями
Бит/(Пиксели*Кадры) : 0.187
Размер потока : 1013 Мбайт (68%)
Библиотека кодирования : XviD 1.2.1 (UTC 2008-12-04)

Аудио #1
Идентификатор : 1
Формат : AC-3
Формат/Информация : Audio Coding 3
Расширение режима : CM (complete main)
Параметр Endianness формата : Big
Идентификатор кодека : 2000
Продолжительность : 1 ч. 42 м.
Вид битрейта : Постоянный
Битрейт : 192 Кбит/сек
Каналы : 6 каналов
Расположение каналов : Front: L C R, Side: L R, LFE
Частота : 48,0 КГц
Битовая глубина : 16 бит
Метод сжатия : С потерями
Размер потока : 141 Мбайт (9%)
Выравнивание : Разделение по промежуткам
Продолжительность промежутка : 42 мс. (1,00 видеокадр)
Время предзагрузки промежутка : 500 мс.

Аудио #2
Идентификатор : 2
Формат : AC-3
Формат/Информация : Audio Coding 3
Расширение режима : CM (complete main)
Параметр Endianness формата : Big
Идентификатор кодека : 2000
Продолжительность : 1 ч. 42 м.
Вид битрейта : Постоянный
Битрейт : 448 Кбит/сек
Каналы : 6 каналов
Расположение каналов : Front: L C R, Side: L R, LFE
Частота : 48,0 КГц
Битовая глубина : 16 бит
Метод сжатия : С потерями
Размер потока : 329 Мбайт (22%)
Выравнивание : Разделение по промежуткам
Продолжительность промежутка : 42 мс. (1,00 видеокадр)
Время предзагрузки промежутка : 500 мс.

Правила, инструкции, FAQ!!!
Торрент  Добавлен [26 апр 2015, 00:57] Скачать торрент
Скачать торрент
[ Размер 15.16 КБ / Просмотров 36 ]

Статус
Проверен 
 
Размер  1.46 ГБ
Приватный: Нет (DHT включён)
.torrent скачан  112
Как залить торрент? | Как скачать Torrent? | Как смотреть и слушать онлайн?  
Гость
 


Вернуться в Вестерн

Кто сейчас на конференции

Сейчас этот форум просматривают: нет зарегистрированных пользователей и гости: 0

   Наша команда  Удалить cookies конференции • Часовой пояс: UTC + 3 часа

Пользовательское соглашение  |  Для правообладателей  | 

croncron