Мультмама / Сезон: 1 / Серии: 3 из 36 [2013, Развивающий мультфильм, HDTVRip, rus]


Статистика раздачи
Размер: 627.98 МБ | Добавлен: 28 янв 2015, 00:14 | Скачали: 113
Сидеров: 3423  [0 байт/сек]    Личеров: 50  [0 байт/сек]

Сообщение Гость » 28 янв 2015, 00:14

Мультмама

Страна: Россия
Жанр: Развивающий мультфильм
Продолжительность: 00:07:00
Год выпуска: 2013
Перевод: Не требуется
Русские субтитры: нет

Режиссёр: Алексей Киселёв
Роли озвучивали: Ольга Богданова, Алексей Шереметьев

Описание: Детский развивающий мультсериал. Два весёлых персонажа - карандашик Рисовалкин и кисточка Мазилка образами рассказывают детям различные вещи. Российский аналог Улицы Сезам.

Список серий:
1. Окружность и шар
2. Геометрические фигуры
3. Учим геометрические фигуры

Исходником послужили материалы студии производителя.
Количество серий будет пополняться.

Качество: HDTVRip
Формат: MP4
Видео: MPEG4 Video (H264) 960x540 30.06fps 16:9 10,6 Кбит/сек
Аудио: Русский, MPEG4 Audio 48000Hz stereo 1536Kbp
Субтитры: Отсутствуют.
Код: Выделить всё
Общее
Полное имя                               : RusEpisode001.mp4
Формат                                   : MPEG-4
Профиль формата                          : Base Media / Version 2
Идентификатор кодека                     : mp42
Размер файла                             : 134 Мбайт
Продолжительность                        : 1 м. 44 с.
Режим общего битрейта                    : Переменный
Общий поток                              : 10,7 Мбит/сек
Дата кодирования                         : UTC 2013-05-26 09:54:45
Дата пометки                             : UTC 2013-05-26 09:54:45
©TIM                                     : 00:00:00:00

Видео
Идентификатор                            : 1
Формат                                   : AVC
Формат/Информация                        : Advanced Video Codec
Профиль формата                          : High@L5.1
Параметр CABAC формата                   : Да
Параметр ReFrames формата                : 3 кадра
Идентификатор кодека                     : avc1
Идентификатор кодека/Информация          : Advanced Video Coding
Продолжительность                        : 1 м. 44 с.
Продолжительность оригинала              : 39 ч.
Source_Duration_LastFrame                : -167 мс.
Вид битрейта                             : Постоянный
Битрейт                                  : 10,6 Мбит/сек
Номинальный битрейт                      : 255 Мбит/сек
Ширина                                   : 960 пикселей
Высота                                   : 540 пикселей
Соотношение сторон                       : 16:9
Режим частоты кадров                     : Постоянный
Частота кадров                           : 30,000 кадров/сек
Стандарт вещания                         : NTSC
Цветовое пространство                    : YUV
Субдискретизация насыщенности            : 4:2:0
Битовая глубина                          : 8 бит
Тип развёртки                            : Прогрессивная
Бит/(Пиксели*Кадры)                      : 0.679
Размер потока                            : 132 Мбайт (99%)
Размер потока оригинала                  : 132 Мбайт (99%)
Язык                                     : English
Дата кодирования                         : UTC 2013-05-26 09:54:45
Дата пометки                             : UTC 2013-05-26 09:54:45
mdhd_Duration                            : 104823
Основные цвета                           : BT.709
Характеристики трансфера                 : BT.709
Коэффициенты матрицы                     : BT.709

Аудио
Идентификатор                            : 2
Формат                                   : AAC
Формат/Информация                        : Advanced Audio Codec
Профиль формата                          : LC
Идентификатор кодека                     : 40
Продолжительность                        : 1 м. 44 с.
Продолжительность оригинала              : 1 м. 45 с.
Вид битрейта                             : Переменный
Битрейт                                  : 125 Кбит/сек
Максимальный битрейт                     : 216 Кбит/сек
Каналы                                   : 2 канала
Расположение каналов                     : Front: L R
Частота                                  : 48,0 КГц
Метод сжатия                             : С потерями
Размер потока                            : 1,57 Мбайт (1%)
Размер потока оригинала                  : 1,57 Мбайт (1%)
Язык                                     : English
Дата кодирования                         : UTC 2013-05-26 09:54:45
Дата пометки                             : UTC 2013-05-26 09:54:45




Правила, инструкции, FAQ!!!
Торрент  Добавлен [28 янв 2015, 00:14] Скачать торрент
Скачать торрент
[ Размер 12.95 КБ / Просмотров 600 ]

Статус
Проверен 
 
Размер  627.98 МБ
Приватный: Нет (DHT включён)
.torrent скачан  113
Как залить торрент? | Как скачать Torrent? | Как смотреть и слушать онлайн?  
Гость
 


Вернуться в Обучающие издания для детей

Кто сейчас на конференции

Сейчас этот форум просматривают: нет зарегистрированных пользователей и гости: 0

   Наша команда  Удалить cookies конференции • Часовой пояс: UTC + 3 часа

Пользовательское соглашение  |  Для правообладателей  | 

cron