Michael Schenker Group - Another Piece of Meat (Scorpions' Lovedrive Reunion) [03.04.2013, Hard Rock, HDTV 1080i]


Статистика раздачи
Размер: 291.13 МБ | Добавлен: 29 апр 2015, 19:32 | Скачали: 3
Сидеров: 9  [0 байт/сек]    Личеров: 3  [0 байт/сек]

Сообщение Гость » 29 апр 2015, 19:32

Michael Schenker Group - Another Piece of Meat


Жанр: Hard Rock
Продолжительность: 04:47
Год выпуска: 2013


Описание:

Выступление в передаче Вечерний Ургант (Эфир от 03.04.2013).
Анонсировался российский тур Temple of Rock - "Scorpions' Lovedrive Reunion".


Качество: HDTV 1080i
Контейнер: MKV
Видео кодек: H.264
Аудио кодек: MP2 / AC3
Видео: MPEG4 Video (H264) 1920x1080 (16:9) 25fps 7768Kbps
Аудио: MP2 48000Hz stereo 192 Kbps
Аудио 2: AC3 48000Hz stereo 384 Kbps
Код: Выделить всё
Format                         : Matroska
Format version                 : Version 2
File size                      : 291 MiB
Duration                       : 4mn 46s
Overall bit rate               : 8 513 Kbps
Encoded date                   : UTC 2013-04-27 17:40:43
Writing application            : mkvmerge v5.5.0 ('Healer') built on Apr  6 2012 21:43:24
Writing library                : libebml v1.2.3 + libmatroska v1.3.0

Video
ID                             : 1
Format                         : AVC
Format/Info                    : Advanced Video Codec
Format profile                 : High@L4.0
Format settings, CABAC         : Yes
Format settings, ReFrames      : 3 frames
Codec ID                       : V_MPEG4/ISO/AVC
Duration                       : 4mn 46s
Bit rate                       : 7 768 Kbps
Width                          : 1 920 pixels
Height                         : 1 080 pixels
Display aspect ratio           : 16:9
Frame rate                     : 25.000 fps
Color space                    : YUV
Chroma subsampling             : 4:2:0
Bit depth                      : 8 bits
Scan type                      : MBAFF
Bits/(Pixel*Frame)             : 0.150
Stream size                    : 266 MiB (91%)
Default                        : Yes
Forced                         : No

Audio #1
ID                             : 2
Format                         : MPEG Audio
Format version                 : Version 1
Format profile                 : Layer 2
Mode                           : Joint stereo
Mode extension                 : Intensity Stereo + MS Stereo
Codec ID                       : A_MPEG/L2
Codec ID/Hint                  : MP2
Duration                       : 4mn 46s
Bit rate mode                  : Constant
Bit rate                       : 192 Kbps
Channel(s)                     : 2 channels
Sampling rate                  : 48.0 KHz
Compression mode               : Lossy
Delay relative to video        : 16ms
Stream size                    : 6.57 MiB (2%)
Language                       : Russian
Default                        : Yes
Forced                         : No

Audio #2
ID                             : 3
Format                         : AC-3
Format/Info                    : Audio Coding 3
Mode extension                 : CM (complete main)
Codec ID                       : A_AC3
Duration                       : 4mn 46s
Bit rate mode                  : Constant
Bit rate                       : 384 Kbps
Channel(s)                     : 2 channels
Channel positions              : Front: L R
Sampling rate                  : 48.0 KHz
Bit depth                      : 16 bits
Compression mode               : Lossy
Delay relative to video        : 16ms
Stream size                    : 13.1 MiB (5%)
Language                       : Russian
Default                        : No
Forced                         : No
Правила, инструкции, FAQ!!!
Торрент  Добавлен [29 апр 2015, 19:32] Скачать торрент
Скачать торрент
[ Размер 12.01 КБ / Просмотров 28 ]

Статус
Проверен 
 
Размер  291.13 МБ
Приватный: Нет (DHT включён)
.torrent скачан  3
Как залить торрент? | Как скачать Torrent? | Как смотреть и слушать онлайн?  
Гость
 


Вернуться в Клипы (HD-Video)

Кто сейчас на конференции

Сейчас этот форум просматривают: нет зарегистрированных пользователей и гости: 0

   Наша команда  Удалить cookies конференции • Часовой пояс: UTC + 3 часа

Пользовательское соглашение  |  Для правообладателей  | 

cron