Меня зовут Троица / Lo chiamavano Trinita (1970) BDRip | P, P2, A | Полная версия


Статистика раздачи
Размер: 2.05 ГБ | Добавлен: 09 дек 2013, 07:55 | Скачали: 10
Сидеров: 11  [0 байт/сек]    Личеров: 1  [0 байт/сек]

Сообщение Гость » 09 дек 2013, 07:55

Название: Меня зовут Троица (Полная версия)
Оригинальное название: Lo chiamavano Trinita (Unrated)
Год выпуска: 1970
Жанр: Комедия, вестерн
Выпущено: Италия
Режиссер: Энцо Барбони

В ролях: Теренс Хилл, Бад Спенсер, Фарли Грейнджер, Елена Педемонте, Стеффен Захариас, Дэн Стёрки, Гизела Хан, Эцио Марано, Лючано Росси

О фильме: Вольный стрелок Троица, прозванный за умение быстро и метко стрелять Правой Рукой Дьявола, приезжает в город, где натыкается на своего сводного брата Бамбино (по кличке Левая Рука Дьявола). Их мать, содержательница публичного дома, в прошлом - проститутка, поэтому братья не знают, кто были их отцы. Бамбино «работает» в городе шерифом (на самом-то деле он грабитель, но, сломав настоящему шерифу ногу, он решил занять его место, чтобы на время залечь на дно), и Троица решает ему «помочь». Община мормонов, приняв их за реальных служителей закона, просит найти управу на главного местного землевладельца и его банду. Обе руки дьявола не позволят свершиться беззаконию. Точнее, они и сами-то непрочь совершить какое-нибудь преступление, однако Троица всерьёз западает на двух мормонских цыпочек. Так что, всех негодяев ожидает кровавая баня…

Качество: BDRip

Продолжительность: 01:53:26

Видео: XviD, 1573 Кбит/с, 720x304
Аудио 1: русский, 48 kHz, AC3, 6 ch, 384 kbps avg, [Профессиональный многоголосый, Film prestige]
Аудио 2: русский, 48 kHz, AC3, 2 ch, 224 kbps avg, [Профессиональный двухголосый]
Аудио 3: русский, 48 kHz, AC3, 2 ch, 192 kbps avg, [Авторский, Алексей Михалёв]

Внешние файлы
Аудио: итальянский, 48 kHz, AC3, 2 ch, 192 kbps avg, [Оригинал]
Субтитры: русские (полные)
Субтитры: русские (на расширенные места)




Общее
Полное имя : E:VideoMenja.zovut.Troica.UnCut.1970.XviD.BDRipMenja.zovut.Troica.UnCut.1970.Original.ita.ac3
Формат : AC-3
Формат/Информация : Audio Coding 3
Размер файла : 156 Мбайт
Продолжительность : 1 ч. 53 м.
Режим общего битрейта : Постоянный
Общий поток : 192 Кбит/сек

Аудио
Формат : AC-3
Формат/Информация : Audio Coding 3
Расширение режима : CM (complete main)
Параметр Endianness формата : Big
Продолжительность : 1 ч. 53 м.
Вид битрейта : Постоянный
Битрейт : 192 Кбит/сек
Каналы : 2 канала
Расположение каналов : Front: L R
Частота : 48,0 КГц
Битовая глубина : 16 бит
Метод сжатия : С потерями
Размер потока : 156 Мбайт (100%)

Общее
Полное имя : E:VideoMenja.zovut.Troica.UnCut.1970.XviD.BDRipMenja.zovut.Troica.UnCut.1970.rus.srt
Формат : SubRip
Размер файла : 68,0 Кбайт

Текст
Формат : SubRip
Метод сжатия : Без потерь

Общее
Полное имя : E:VideoMenja.zovut.Troica.UnCut.1970.XviD.BDRipMenja.zovut.Troica.UnCut.1970.rus.на расширенные сцены.srt
Формат : SubRip
Размер файла : 2,74 Кбайт

Текст
Формат : SubRip
Метод сжатия : Без потерь

Общее
Полное имя : E:VideoMenja.zovut.Troica.UnCut.1970.XviD.BDRipMenja.zovut.Troica.UnCut.1970.XviD.BDRip.avi
Формат : AVI
Формат/Информация : Audio Video Interleave
Размер файла : 1,90 Гбайт
Продолжительность : 1 ч. 53 м.
Общий поток : 2392 Кбит/сек
Программа кодирования : VirtualDubMod 1.5.10.2 (build 2540/release)
Библиотека кодирования : VirtualDubMod build 2540/release

Видео
Идентификатор : 0
Формат : MPEG-4 Visual
Профиль формата : Advanced Simple@L5
Параметр BVOP формата : 1
Параметр QPel формата : Нет
Параметр GMC формата : Без точки перехода
Параметр матрицы формата : Default (H.263)
Режим смешивания : Сжатый битовый поток
Идентификатор кодека : XVID
Идентификатор кодека/Подсказка : XviD
Продолжительность : 1 ч. 53 м.
Битрейт : 1573 Кбит/сек
Ширина : 720 пикселей
Высота : 304 пикселя
Соотношение сторон : 2,35:1
Частота кадров : 23,976 кадра/сек
Цветовое пространство : YUV
Субдискретизация насыщенности : 4:2:0
Битовая глубина : 8 бит
Тип развёртки : Прогрессивная
Метод сжатия : С потерями
Бит/(Пиксели*Кадры) : 0.300
Размер потока : 1,25 Гбайт (66%)
Библиотека кодирования : XviD 1.2.1 (UTC 2008-12-04)

Аудио #1
Идентификатор : 1
Формат : AC-3
Формат/Информация : Audio Coding 3
Расширение режима : CM (complete main)
Параметр Endianness формата : Big
Идентификатор кодека : 2000
Продолжительность : 1 ч. 53 м.
Вид битрейта : Постоянный
Битрейт : 384 Кбит/сек
Каналы : 6 каналов
Расположение каналов : Front: L C R, Side: L R, LFE
Частота : 48,0 КГц
Битовая глубина : 16 бит
Метод сжатия : С потерями
Размер потока : 312 Мбайт (16%)
Выравнивание : Разделение по промежуткам
Продолжительность промежутка : 42 мс. (1,00 видеокадр)
Время предзагрузки промежутка : 500 мс.

Аудио #2
Идентификатор : 2
Формат : AC-3
Формат/Информация : Audio Coding 3
Расширение режима : CM (complete main)
Параметр Endianness формата : Big
Идентификатор кодека : 2000
Продолжительность : 1 ч. 53 м.
Вид битрейта : Постоянный
Битрейт : 224 Кбит/сек
Каналы : 2 канала
Расположение каналов : Front: L R
Частота : 48,0 КГц
Битовая глубина : 16 бит
Метод сжатия : С потерями
Размер потока : 182 Мбайт (9%)
Выравнивание : Разделение по промежуткам
Продолжительность промежутка : 42 мс. (1,00 видеокадр)
Время предзагрузки промежутка : 500 мс.

Аудио #3
Идентификатор : 3
Формат : AC-3
Формат/Информация : Audio Coding 3
Расширение режима : CM (complete main)
Параметр Endianness формата : Big
Идентификатор кодека : 2000
Продолжительность : 1 ч. 53 м.
Вид битрейта : Постоянный
Битрейт : 192 Кбит/сек
Каналы : 2 канала
Расположение каналов : Front: L R
Частота : 48,0 КГц
Битовая глубина : 16 бит
Метод сжатия : С потерями
Размер потока : 156 Мбайт (8%)
Выравнивание : Разделение по промежуткам
Продолжительность промежутка : 42 мс. (1,00 видеокадр)
Время предзагрузки промежутка : 500 мс.


Правила, инструкции, FAQ!!!
Торрент  Добавлен [09 дек 2013, 07:55] Скачать торрент
Скачать торрент
[ Размер 10.97 КБ / Просмотров 33 ]

Статус
Проверен 
 
Размер  2.05 ГБ
Приватный: Нет (DHT включён)
.torrent скачан  10
Как залить торрент? | Как скачать Torrent? | Как смотреть и слушать онлайн?  
Гость
 


Вернуться в Вестерн

Кто сейчас на конференции

Сейчас этот форум просматривают: нет зарегистрированных пользователей и гости: 0

   Наша команда  Удалить cookies конференции • Часовой пояс: UTC + 3 часа

Пользовательское соглашение  |  Для правообладателей  | 

cron