Лихорадка Прерии / Закат в прериях / Prairie Fever (Стефен Бриджуотер / Stephen Bridgewater, Дэвид С. Касс ст. / David S. Cass Sr.) [2008, Вестерн, DVDRip] MVO


Статистика раздачи
Размер: 1.46 ГБ | Добавлен: 13 фев 2014, 06:34 | Скачали: 5
Сидеров: 33  [0 байт/сек]    Личеров: 3  [0 байт/сек]

Сообщение Гость » 13 фев 2014, 06:34

Лихорадка Прерии / Закат в прериях / Prairie Fever

Страна: США, Grand Army Entertainment
Жанр: Вестерн
Год выпуска: 2008
Продолжительность: 01:21:24.546 (1

Перевод: Любительский (двухголосый)

Cубтитры: нет
Режиссер: Стефен Бриджуотер / Stephen Bridgewater , Дэвид С. Касс ст. / David S. Cass Sr.

В ролях: Кевин Сорбо, Доминик Суэйн, Джэми Браун, Джиллиан Арменанте, Фелиция Дэй, Сайлас Уэйр Митчелл, Люси Ли Флиппин, Блейк Гиббонс, Дон Суэйзи, Крис МакКенна

Описание: Жизнь Шерифа Престона Биггза (Кевин Сорбо, Геракл) потеряла смысл после того как он 2 года назад случайно убил свою жену взятую в заложники бандитами. Теперь его единственная радость это бутылка виски. Но однажды к нему приходит деловая женщина с предложением, о работе заключающимся в транспортировке багажа и трех девушек страдающих "лихорадкой прерии" (умственной неустойчивостью) к вокзалу Карсон-Сити. Во время поездки Оливия подслушивает разговор одной из девочек после чего у Оливии проявляются материнские чувства к самой молодой из девочек Абигейл, , и влечение к Биггзу. Но Оливии нужно доставить багаж, до того как их настигнет ее бывший муж Джеймс Монт (Ланс Хенриксен, Чужие). Доминик Свейн (Без лица) также принимает участие в этом остросюжетном вестерне.



CЭМПЛ

Качество видео: DVDRip(Исх.DVD5)
Формат видео: AVI

Видео: 720x400 (1.80:1), 23.976 fps, XviD MPEG-4 ~2105 kbps avg, 0.30 bit/pixel
Аудио: 48 kHz, AC3 Dolby Digital, 3/2 (L,C,R,l,r) + LFE ch, ~448 kbps
AviInfo
File: Lichoradka prerii.chopper887.avi
Filesize: 1492.41 Mb ( 1 564 907 520 bytes )
Play length: 01:21:24.546 (117112 frames)
Subtitles: Not Present
Video: 720x400 (1.80:1), 23.976 fps, XviD MPEG-4 ~2105 kbps avg, 0.30 bit/pixel
Audio: 48 kHz, AC3 Dolby Digital, 3/2 (L,C,R,l,r) + LFE ch, ~448 kbps
MediaInfo
General
Complete name : F:\Lichoradka prerii.chopper887.avi
Format : AVI
Format/Info : Audio Video Interleave
File size : 1.46 GiB
Duration : 1h 21mn
Overall bit rate : 2 563 Kbps
Writing application : VirtualDubMod 1.5.10.2 (build 2540/release)
Writing library : VirtualDubMod build 2540/release

Video
ID : 0
Format : MPEG-4 Visual
Format profile : Advanced Simple@L5
Format settings, BVOP : Yes
Format settings, QPel : No
Format settings, GMC : No warppoints
Format settings, Matrix : Custom

Muxing mode : Packed bitstream
Codec ID : XVID
Codec ID/Hint : XviD
Duration : 1h 21mn
Bit rate : 2 106 Kbps
Width : 720 pixels
Height : 400 pixels
Display aspect ratio : 16:9
Frame rate : 23.976 fps
Color space : YUV
Chroma subsampling : 4:2:0
Bit depth : 8 bits
Scan type : Progressive
Bits/(Pixel*Frame) : 0.305
Stream size : 1.20 GiB (82%)
Writing library : XviD 1.2.1 (UTC 2008-12-04)

Audio
ID : 1
Format : AC-3
Format/Info : Audio Coding 3
Mode extension : CM (complete main)
Codec ID : 2000
Duration : 1h 21mn
Bit rate mode : Constant
Bit rate : 448 Kbps
Channel(s) : 6 channels
Channel positions : Front: L C R, Side: L R, LFE
Sampling rate : 48.0 KHz
Stream size : 261 MiB (17%)
Alignment : Split accross interleaves
Interleave, duration : 42 ms (1.00 video frame)
Interleave, preload duration : 500 ms

Правила, инструкции, FAQ!!!
Торрент  Добавлен [13 фев 2014, 06:34] Скачать торрент
Скачать торрент
[ Размер 15.08 КБ / Просмотров 42 ]

Статус
Проверен 
 
Размер  1.46 ГБ
Приватный: Нет (DHT включён)
.torrent скачан  5
Как залить торрент? | Как скачать Torrent? | Как смотреть и слушать онлайн?  
Гость
 


Вернуться в Вестерн

Кто сейчас на конференции

Сейчас этот форум просматривают: нет зарегистрированных пользователей и гости: 0

   Наша команда  Удалить cookies конференции • Часовой пояс: UTC + 3 часа

Пользовательское соглашение  |  Для правообладателей  | 

croncron