Ленинград - 26 клипов (2013 - 2014) WEBRip [H.264/720p-LQ]


Статистика раздачи
Размер: 1.37 ГБ | Добавлен: 12 июл 2014, 20:30 | Скачали: 315
Сидеров: 3121  [0 байт/сек]    Личеров: 98  [0 байт/сек]

Сообщение Гость » 12 июл 2014, 20:30

Ленинград - 26 клипов (2013 - 2014) WEBRip [H.264/720p-LQ]

18+

Год выпуска: 2013 - 2014
Жанр: Ska / Rock

Описание:
Представлены клипы группировки "Ленинград", созданные в 2013-2014 годах.

Треклист:
01 Arina - Зачем Зачем! (3:11)
02 Диоды (2:58)
03 37-й (2:55)
04 Russalko (2:56)
05 U*an (2:42)
06 Баба не моего масштаба (2:28)
07 Батл Красного (2:33)
08 Белуга (2:31)
09 Дорожная (5:11)
10 Интеграл (2:07)
11 Крым (2:56)
12 Мои *уи (6:42)
13 Не Крым (2:56)
14 Ноу Ноу Фьюче (2:57)
15 Парголово (2:35)
16 Платье (2:37)
17 Плачу (3:01)
18 Почём звонят колокола (3:24)
19 Родная (3:44)
20 СИЗОнная (2:27)
21 Сумка (4:25)
22 Суходрочка (2:27)
23 Турбобой (3:05)
24 Фиаско (без цензуры) (3:24)
25 Фиаско (2:54)
26 Цунами (3:19)
Продолжительность: 01:22:35
Качество видео: WEBRip
Видеокодек: MPEG-4 AVC/H.264
Битрейт видео: ~3000 kb/s
Размер кадра: 1280x720
Аудиокодек: AАC, 2 ch
Битрейт аудио: 192 kb/s VBR
«Ленинград» (полное название — Группировка Ленинград) — музыкальная группа из Санкт-Петербурга, созданная Сергеем Шнуровым. Известна, в частности, эксцентричными песнями с большим количеством мата и алкогольно-бытовой тематикой. Группа использует в своём творчестве обширный состав духовых инструментов: труба, саксофон, тромбон, туба. Также группа иногда расширяется за счёт саксгорнов.
Общее
Полное имя : Зачем Зачем!.mp4
Формат : MPEG-4
Профиль формата : Base Media / Version 2
Идентификатор кодека : mp42
Размер файла : 29,0 Мбайт
Продолжительность : 3 м. 11 с.
Режим общего битрейта : Переменный
Общий поток : 1272 Кбит/сек
Дата кодирования : UTC 2014-02-06 08:23:54
Дата пометки : UTC 2014-02-06 08:23:54
gsst : 0
gstd : 191331
gssd : B4A7D6E66HH1404938979360450
gshh : r6---sn-n8v7sn7l.googlevideo.com

Видео
Идентификатор : 1
Формат : AVC
Формат/Информация : Advanced Video Codec
Профиль формата :
Параметр CABAC формата : Да
Параметр ReFrames формата : 1 кадр
Идентификатор кодека : avc1
Идентификатор кодека/Информация : Advanced Video Coding
Продолжительность : 3 м. 11 с.
Битрейт : 1077 Кбит/сек
Максимальный битрейт : 3234 Кбит/сек
Ширина : 1280 пикселей
Высота : 720 пикселей
Соотношение сторон : 16:9
Режим частоты кадров : Постоянный
Частота кадров : 25,000 кадров/сек
Цветовое пространство : YUV
Субдискретизация насыщенности : 4:2:0
Битовая глубина : 8 бит
Тип развёртки : Прогрессивная
Бит/(Пиксели*Кадры) : 0.047
Размер потока : 24,6 Мбайт (85%)
Дата пометки : UTC 2014-02-06 08:23:55

Аудио
Идентификатор : 2
Формат : AAC
Формат/Информация : Advanced Audio Codec
Профиль формата : LC
Идентификатор кодека : 40
Продолжительность : 3 м. 11 с.
Вид битрейта : Переменный
Битрейт : 192 Кбит/сек
Максимальный битрейт : 201 Кбит/сек
Каналы : 2 канала
Расположение каналов : Front: L R
Частота : 44,1 КГц
Метод сжатия : С потерями
Размер потока : 4,38 Мбайт (15%)
Заголовок : IsoMedia File Produced by Google, 5-11-2011
Дата кодирования : UTC 2014-02-06 08:23:54
Дата пометки : UTC 2014-02-06 08:23:55

Общее
Полное имя : Диоды.mp4
Формат : MPEG-4
Профиль формата : Base Media / Version 2
Идентификатор кодека : mp42
Размер файла : 51,8 Мбайт
Продолжительность : 2 м. 58 с.
Режим общего битрейта : Переменный
Общий поток : 2427 Кбит/сек
Дата кодирования : UTC 2013-12-13 16:19:10
Дата пометки : UTC 2013-12-13 16:19:10
gsst : 0
gstd : 178978
gssd : BADC23AACHH1404939386419103
gshh : r12---sn-n8v7lnee.googlevideo.com

Видео
Идентификатор : 1
Формат : AVC
Формат/Информация : Advanced Video Codec
Профиль формата :
Параметр CABAC формата : Да
Параметр ReFrames формата : 1 кадр
Параметр GOP формата : M=1, N=60
Идентификатор кодека : avc1
Идентификатор кодека/Информация : Advanced Video Coding
Продолжительность : 2 м. 58 с.
Битрейт : 2233 Кбит/сек
Максимальный битрейт : 4726 Кбит/сек
Ширина : 1280 пикселей
Высота : 720 пикселей
Соотношение сторон : 16:9
Режим частоты кадров : Постоянный
Частота кадров : 25,000 кадров/сек
Цветовое пространство : YUV
Субдискретизация насыщенности : 4:2:0
Битовая глубина : 8 бит
Тип развёртки : Прогрессивная
Бит/(Пиксели*Кадры) : 0.097
Размер потока : 47,6 Мбайт (92%)
Дата пометки : UTC 2013-12-13 16:19:12

Аудио
Идентификатор : 2
Формат : AAC
Формат/Информация : Advanced Audio Codec
Профиль формата : LC
Идентификатор кодека : 40
Продолжительность : 2 м. 58 с.
Вид битрейта : Переменный
Битрейт : 192 Кбит/сек
Максимальный битрейт : 202 Кбит/сек
Каналы : 2 канала
Расположение каналов : Front: L R
Частота : 44,1 КГц
Метод сжатия : С потерями
Размер потока : 4,10 Мбайт (8%)
Заголовок : IsoMedia File Produced by Google, 5-11-2011
Дата кодирования : UTC 2013-12-13 16:19:11
Дата пометки : UTC 2013-12-13 16:19:12

Общее
Полное имя : 37-й.mp4
Формат : MPEG-4
Профиль формата : Base Media / Version 2
Идентификатор кодека : mp42
Размер файла : 66,7 Мбайт
Продолжительность : 2 м. 55 с.
Режим общего битрейта : Переменный
Общий поток : 3195 Кбит/сек
Дата кодирования : UTC 2014-03-07 07:09:15
Дата пометки : UTC 2014-03-07 07:09:15
gsst : 0
gstd : 175055
gssd : BADC23A63HH1404938999207570
gshh : r3---sn-n8v7ln7y.googlevideo.com

Видео
Идентификатор : 1
Формат : AVC
Формат/Информация : Advanced Video Codec
Профиль формата :
Параметр CABAC формата : Да
Параметр ReFrames формата : 1 кадр
Параметр GOP формата : M=1, N=60
Идентификатор кодека : avc1
Идентификатор кодека/Информация : Advanced Video Coding
Продолжительность : 2 м. 55 с.
Битрейт : 3001 Кбит/сек
Максимальный битрейт : 4731 Кбит/сек
Ширина : 1280 пикселей
Высота : 720 пикселей
Соотношение сторон : 16:9
Режим частоты кадров : Постоянный
Частота кадров : 29,970 кадров/сек
Цветовое пространство : YUV
Субдискретизация насыщенности : 4:2:0
Битовая глубина : 8 бит
Тип развёртки : Прогрессивная
Бит/(Пиксели*Кадры) : 0.109
Размер потока : 62,6 Мбайт (94%)
Дата пометки : UTC 2014-03-07 07:09:17

Аудио
Идентификатор : 2
Формат : AAC
Формат/Информация : Advanced Audio Codec
Профиль формата : LC
Идентификатор кодека : 40
Продолжительность : 2 м. 55 с.
Вид битрейта : Переменный
Битрейт : 192 Кбит/сек
Максимальный битрейт : 201 Кбит/сек
Каналы : 2 канала
Расположение каналов : Front: L R
Частота : 44,1 КГц
Метод сжатия : С потерями
Размер потока : 4,01 Мбайт (6%)
Заголовок : IsoMedia File Produced by Google, 5-11-2011
Дата кодирования : UTC 2014-03-07 07:09:16
Дата пометки : UTC 2014-03-07 07:09:17
Скриншоты:
Правила, инструкции, FAQ!!!
Торрент  Добавлен [12 июл 2014, 20:30] Скачать торрент
Скачать торрент
[ Размер 16.62 КБ / Просмотров 1292 ]

Статус
Проверен 
 
Размер  1.37 ГБ
Приватный: Нет (DHT включён)
.torrent скачан  315
Как залить торрент? | Как скачать Torrent? | Как смотреть и слушать онлайн?  
Гость
 


Вернуться в Клипы (HD-Video)

Кто сейчас на конференции

Сейчас этот форум просматривают: нет зарегистрированных пользователей и гости: 0

   Наша команда  Удалить cookies конференции • Часовой пояс: UTC + 3 часа

Пользовательское соглашение  |  Для правообладателей  | 

cron