Как разговорить молчуна, возраст 2-3 года (Игорь Пелинский) [2009, Обучающее видео для родителей, DVDRip, RUS]


Статистика раздачи
Размер: 598.92 МБ | Добавлен: 20 сен 2014, 00:07 | Скачали: 1
Сидеров: 150  [0 байт/сек]    Личеров: 9  [0 байт/сек]

Сообщение Гость » 20 сен 2014, 00:07

Как разговорить молчуна (2-3 года)

Страна: Россия
Издатель: SovaFilm
Режиссер: Игорь Пелинский
Тематика: Раннее развитие
Тип раздаваемого материала: Видеоурок
Продолжительность: 00:48:13
Год выпуска: 2009

Язык: Русский
Перевод: Не требуется

Описание:
Этот фильм предназначен для самостоятельных занятий мамы со своим малышом и служит методическим пособием. Вам будет интересно узнать, как можно разговорить даже самого упрямого «молчуна», и какие существуют «хитрости» для того, чтобы увлечь ребенка занятиями и играми.
Опытный логопед научит вас, как надо заниматься развитием речи с «молчунами», какие существуют выбрать методы с ними и как можно обойти «подводные камни». Фильм уделяет много внимания развитию пассивного и активного словаря малышей, формированию фразовой речи. В нем представлен обширный практический материал, рассказывается о нормах развития детской речи и вариантах логопедической помощи. Предлагаемый фильм будет также полезен и интересен воспитателям детских учреждений, гувернерам и няням.

Качество: DVDRip
Формат: AVI
Видео кодек: XviD
Аудио кодек: MP3
Видео: MPEG-4 Visual 720х544 (4:3) 1600 kbps 25.000 fps
Аудио: MPEG Audio V1 L3 128 Kbps 48.0 KHz 2 ch
Код: Выделить всё
General
Complete name                    : D:\Как разговорить молчуна (2-3 года) 2009.avi
Format                           : AVI
Format/Info                      : Audio Video Interleave
File size                        : 599 MiB
Duration                         : 48mn 13s
Overall bit rate                 : 1 736 Kbps
Writing application              : VirtualDubMod 1.5.10.2 (build 2540/release)
Writing library                  : VirtualDubMod build 2540/release

Video
ID                               : 0
Format                           : MPEG-4 Visual
Format profile                   : Advanced Simple@L5
Format settings, BVOP            : No
Format settings, QPel            : No
Format settings, GMC             : No warppoints
Format settings, Matrix          : Default (H.263)
Codec ID                         : XVID
Codec ID/Hint                    : XviD
Duration                         : 48mn 13s
Bit rate                         : 1 599 Kbps
Width                            : 720 pixels
Height                           : 544 pixels
Display aspect ratio             : 4:3
Frame rate                       : 25.000 fps
Color space                      : YUV
Chroma subsampling               : 4:2:0
Bit depth                        : 8 bits
Scan type                        : Progressive
Compression mode                 : Lossy
Bits/(Pixel*Frame)               : 0.163
Stream size                      : 551 MiB (92%)
Writing library                  : XviD 1.2.1 (UTC 2008-12-04)

Audio
ID                               : 1
Format                           : MPEG Audio
Format version                   : Version 1
Format profile                   : Layer 3
Codec ID                         : 55
Codec ID/Hint                    : MP3
Duration                         : 48mn 13s
Bit rate mode                    : Constant
Bit rate                         : 128 Kbps
Channel(s)                       : 2 channels
Sampling rate                    : 48.0 KHz
Compression mode                 : Lossy
Stream size                      : 44.2 MiB (7%)
Alignment                        : Aligned on interleaves
Interleave, duration             : 40 ms (1.00 video frame)
Interleave, preload duration     : 504 ms
Writing library                  : LAME3.98r
Encoding settings                : -m s -V 4 -q 2 -lowpass 17 -b 128
Правила, инструкции, FAQ!!!
Торрент  Добавлен [20 сен 2014, 00:07] Скачать торрент
Скачать торрент
[ Размер 12.32 КБ / Просмотров 35 ]

Статус
Проверен 
 
Размер  598.92 МБ
Приватный: Нет (DHT включён)
.torrent скачан  1
Как залить торрент? | Как скачать Torrent? | Как смотреть и слушать онлайн?  
Гость
 


Вернуться в Обучающие издания для детей

Кто сейчас на конференции

Сейчас этот форум просматривают: нет зарегистрированных пользователей и гости: 0

   Наша команда  Удалить cookies конференции • Часовой пояс: UTC + 3 часа

Пользовательское соглашение  |  Для правообладателей  | 

cron