[TR24][OF] Jonsi & Alex (Jónsi & Alex) - Riceboy Sleeps (2019 Remaster) - 2009/2019 (Ambient)


Статистика раздачи
Размер: 720.62 МБ | Добавлен: 02 июн 2020, 09:45 | Скачали: 0
Сидеров: 0  [0 байт/сек]    Личеров: 0  [0 байт/сек]

Сообщение Гость » 02 июн 2020, 09:45

Jónsi & Alex / Riceboy Sleeps (2019 Remaster)
Формат записи/Источник записи: [TR24][OF]
Год издания/переиздания диска: 2009/2019
Жанр: Ambient
Издатель (лейбл): Parlophone UK
Продолжительность: 01:07:25
Наличие сканов в содержимом раздачи: Только обложка альбома
Треклист:
01. Happiness
02. Atlas Song
03. Indian Summer
04. Stokkseyri
05. Boy 1904
06. All The Big Trees
07. Daníell In The Sea
08. Howl
09. Sleeping Giant
Контейнер: FLAC (*.flac)
Тип рипа: tracks
Разрядность: 24/44,1
Формат: WAV (flac.ape.wv)
Количество каналов: 2.0
Код: Выделить всё
foobar2000 1.4.6 / Замер динамического диапазона (DR) 1.1.1
Дата отчёта:  2019-09-01 11:58:19
--------------------------------------------------------------------------------
Анализ:   Jon Thor Birgisson / Riceboy Sleeps (2019 Remaster)
--------------------------------------------------------------------------------
DR         Пики         RMS           Продолжительность трека
--------------------------------------------------------------------------------
DR8       -0.50 дБ   -12.16 дБ      9:19 01-Happiness (2019 Remaster)
DR9       -0.52 дБ   -14.07 дБ      8:15 02-Atlas Song (2019 Remaster)
DR8       -0.50 дБ   -12.79 дБ      9:21 03-Indian Summer (2019 Remaster)
DR8       -0.52 дБ   -11.76 дБ      7:10 04-Stokkseyri (2019 Remaster)
DR9       -0.51 дБ   -13.12 дБ      5:05 05-Boy 1904 (2019 Remaster)
DR9       -0.74 дБ   -14.82 дБ      5:15 06-All The Big Trees (2019 Remaster)
DR8       -0.52 дБ   -13.04 дБ      7:07 07-Daníell In The Sea (2019 Remaster)
DR9       -1.00 дБ   -13.78 дБ      8:26 08-Howl (2019 Remaster)
DR10      -0.52 дБ   -13.64 дБ      7:27 09-Sleeping Giant (2019 Remaster)
--------------------------------------------------------------------------------
Количество треков: 9
Реальные значения DR: DR9
Частота:   44100 Гц
Каналов:   2
Разрядность:   24
Битрейт:   1364 кбит/с
Кодек:   FLAC
================================================================================
Источник (релизер): Qobuz
Правила, инструкции, FAQ!!!
Торрент  Добавлен [02 июн 2020, 09:45] Скачать торрент
Скачать торрент
[ Размер 29.33 КБ / Просмотров 0 ]

Статус
Проверен 
 
Размер  720.62 МБ
Приватный: Нет (DHT включён)
.torrent скачан  0
Как залить торрент? | Как скачать Torrent? | Как смотреть и слушать онлайн?  
Гость
 


Вернуться в Hi-Res stereo (Электронная музыка)

Кто сейчас на конференции

Сейчас этот форум просматривают: нет зарегистрированных пользователей и гости: 0

   Наша команда  Удалить cookies конференции • Часовой пояс: UTC + 3 часа

Пользовательское соглашение  |  Для правообладателей  | 

croncron