Жил-был космос / Il Etait Une Fois... L'Espace [1982, Мультсериал, познавательный, развивающий, семейный, DVDRip, RUS] (Обучающий мультфильм)


Статистика раздачи
Размер: 8.93 ГБ | Добавлен: 28 янв 2015, 00:07 | Скачали: 2
Сидеров: 21  [0 байт/сек]    Личеров: 4  [0 байт/сек]

Сообщение Гость » 28 янв 2015, 00:07

Жил-был космос / Il Etait Une Fois... L'Espace

Страна: Франция, Канада, Procidis, France Regions 3 (FR3), Société Radio-Canada
Тематика: Мультсериал, познавательный, развивающий, семейный
Тип раздаваемого материала: Видео
Продолжительность: 26 x ~ 00:26:30
Год выпуска: 1982

Язык: Русский
Перевод: Любительcкий (одноголосый) (Александр Середа)
Режиссер: Альбер Барилье / Albert Barillé
Роли озвучивали в оригинале: Роже Карель, Энни Балестра, Ален Дорваль, Винсент Ропион, Заира Бенбабис, Жилль Лорен, Франсис Лакс, Хосе Люссьони, Джозеф Мейнред, Сади Реббо, Фредерик Витта

Описание: Сериал "Жил-был Космос" - продолжение мультипликационного сериала «Жили-были...». Вместе с Пьером, Пси, Метро и Маэстро мы совершим путешествия в новые незнакомые места. Они расскажут нам, как, возможно, произойдет познание нашей Вселенной. Чудесную песню в начале оригинальных серий исполнил Жан-Пьер Савильи. История рассказывает о противостоянии нескольких крупных галактических держав (Конфедерации Омега, Республики Кассиопея, возглавляемой генералом Mангу, и Великого Компьютера, своего рода супер-мощного компьютера во главе армии Роботов). Во Франции было выпущено семь детских мультсериалов, несущих познавательный и развивающий характер.
01. Планета Омега
02. Ящеры
03. Зеленая планета
04. В сторону Андромеды
05. Кроманьйонцы
06. Бунт роботов
07. Планета Мито
08. Долгое путешествие
09. Кассиопея
10. Большой взрыв
11. Потерпевшие кораблекрушение
12. Великаны
13. В стране инков
14. Среди динозавров
15. Кольца сатурна
16. Большая угроза
17. Земля
18. Атлантида
19. Странное возвращение на Омегу
20. Месть роботов
21. Гуманоиды
22. Враждебный мир
23. Летающий город
24. Большой компьютер
25. Столкновение титанов
26. Бесконечное пространство
Качество: DVDRip
Формат: AVI
Видео кодек: XviD
Аудио кодек: MP3
Видео: 640x480 (1.33:1), 25 fps, XviD MPEG-4 ~1393 kbps avg, 0.18 bit/pixel
Аудио: Русский (48 kHz, MPEG Layer 3, 2 ch, ~192.00 kbps avg)
Аудио 2: Польский (48 kHz, MPEG Layer 3, 2 ch, ~160.00 kbps avg)
Аудио 3: Французский (48 kHz, MPEG Layer 3, 2 ch, ~192.00 kbps avg)
Субтитры: отсутствуют




Sample
Любимый сериал детства. Нигде не мог найти. И вот...
Одноголосый перевод сделал я сам, с польской дорожки, поэтому не стоит особенно возражать, так как русского перевода не существует вообще! В меру свободного времени со временем выложу все серии. Плюс к этому оставляю польскую и французскую аудиодорожки.Если кому надо,то лишние звуковые дорожки удаляются за несколько секунд в маленькой бесплатной программе VirtualDubMod 1.5.10.2.2542 - Файл-Открыть-Потоки-Потоки-Отключить-ОК-Сохранить как... Во вкладке видео дожно быть выбрано Прямопотоковое копирование.в этой же программе можно обрезать начальные и финальные титры.
Персонажи:
Маэстро(Maestro) - символ целой серии "Однажды ...". С длинной белой бородой, которая охватывает все его тело. Это великий ученый и дед Пьерротa.
Пьер(Pierre) - главный герой. Как правило, имеет длинные волосы. Он любит инновации.
Пьеррет(Pierrette) - жена Пьера. Она любит своего сына.
Пьерро(Pierrot) - сын Пьера и Пьеррет. Очень остроумный. Он проводит много времени со своим дедушкой Маэстро.
Пьерретта - дочь Пьера и Пьеррет.Любит моду. Немного плаксива.
Пси(Psi)-появляется позднее.Очень красивая темно-волосая девушка,показана в основном как подруга или жена Пьера.
Силач(le Gros)(потом Джамбо) - друг или брат Пьера. Это самый сильный человек в мире.Очень не любит Wredniaka и Конус. Он часто защищает Пьера, Пьеретт(и Psi в продолжениях) от хулиганов.
Жена Силача - Очень интеллигентна и рассудительна.Подружка Пьеррет
Толстячок(Petit Gros) - сын Силача.Друг Пьеррота
Вредитель(le Teigneux) - эгоистичным и злой человек, который всегда представляет лукавого. У него красный (позднее оранжевый)кругляком нос.Консерватор как в области
технологий, а также политики.
Подлый - сын Вредителя. Он появляется в нескольких эпизодах.
Карлик(le Nabot) - низенький и жадный слуга Вредителя. У него оранжевый нос в виде хот-дога.Консервативный как в области технологий,так и политики.
Лилипут - сын Карлика. Он похож на своего отца, только меньше
Отвратительный - Вредителя отец. Появляется в эпизоде Первых империй.
General
Complete name : Zhil-byl.Kosmos.(1-26.serii.iz.26).1982.XviD.DVDRip.Reliz.Kinozal.TV\Zhil-byl.kosmos.(26.serija.iz.26).Beskonechnost.1982.XviD.DVDRip.avi
Format : AVI
Format/Info : Audio Video Interleave
File size : 356 MiB
Duration : 26mn 45s
Overall bit rate : 1 861 Kbps
Writing application : VirtualDubModRus 1.5.10.2 (build 2542/release)
Writing library : VirtualDubMod build 2542/release

Video
ID : 0
Format : MPEG-4 Visual
Format profile : Advanced Simple@L5
Format settings, BVOP : Yes
Format settings, QPel : No
Format settings, GMC : No warppoints
Format settings, Matrix : Default (MPEG)
Codec ID : XVID
Codec ID/Hint : XviD
Duration : 26mn 45s
Bit rate : 1 297 Kbps
Width : 640 pixels
Height : 480 pixels
Display aspect ratio : 4:3
Frame rate : 25.000 fps
Color space : YUV
Chroma subsampling : 4:2:0
Bit depth : 8 bits
Scan type : Progressive
Bits/(Pixel*Frame) : 0.169
Stream size : 248 MiB (70%)
Writing library : XviD 1.2.1 (UTC 2008-12-04)

Audio #1
ID : 1
Format : MPEG Audio
Format version : Version 1
Format profile : Layer 3
Codec ID : 55
Codec ID/Hint : MP3
Duration : 26mn 45s
Bit rate mode : Constant
Bit rate : 192 Kbps
Channel(s) : 2 channels
Sampling rate : 48.0 KHz
Stream size : 36.8 MiB (10%)
Alignment : Aligned on interleaves
Interleave, duration : 40 ms (1.00 video frame)
Interleave, preload duration : 504 ms

Audio #2
ID : 2
Format : MPEG Audio
Format version : Version 1
Format profile : Layer 3
Codec ID : 55
Codec ID/Hint : MP3
Duration : 26mn 45s
Bit rate mode : Constant
Bit rate : 160 Kbps
Channel(s) : 2 channels
Sampling rate : 48.0 KHz
Stream size : 30.6 MiB (9%)
Alignment : Aligned on interleaves
Interleave, duration : 40 ms (1.00 video frame)
Interleave, preload duration : 504 ms
Writing library : LAME3.98r
Encoding settings : -m s -V 4 -q 0 -lowpass 17.5 -b 160

Audio #3
ID : 3
Format : MPEG Audio
Format version : Version 1
Format profile : Layer 3
Codec ID : 55
Codec ID/Hint : MP3
Duration : 26mn 45s
Bit rate mode : Constant
Bit rate : 192 Kbps
Channel(s) : 2 channels
Sampling rate : 44.1 KHz
Stream size : 36.8 MiB (10%)
Alignment : Split accross interleaves
Interleave, duration : 40 ms (1.00 video frame)
Interleave, preload duration : 500 ms
Правила, инструкции, FAQ!!!
Торрент  Добавлен [28 янв 2015, 00:07] Скачать торрент
Скачать торрент
[ Размер 181.75 КБ / Просмотров 28 ]

Статус
Проверен 
 
Размер  8.93 ГБ
Приватный: Нет (DHT включён)
.torrent скачан  2
Как залить торрент? | Как скачать Torrent? | Как смотреть и слушать онлайн?  
Гость
 


Вернуться в Обучающие издания для детей

Кто сейчас на конференции

Сейчас этот форум просматривают: нет зарегистрированных пользователей и гости: 0

   Наша команда  Удалить cookies конференции • Часовой пояс: UTC + 3 часа

Пользовательское соглашение  |  Для правообладателей  | 

croncron