Жил-был Человек / Il Etait Une Fois... l'homme / Серии 0-26 (26) (Альбер Барилье / Albert Barillé) [1978, Мультипликационный, фантастика, DVDRip] ДУБЛ


Статистика раздачи
Размер: 11.03 ГБ | Добавлен: 28 янв 2015, 00:06 | Скачали: 2
Сидеров: 80  [0 байт/сек]    Личеров: 28  [0 байт/сек]

Сообщение Гость » 28 янв 2015, 00:06

Жил-был Человек / Il Etait Une Fois... l'homme

Страна: Франция
Тематика: Познавательный, мультипликационный, фантастика, приключения
Серии (количество): 26
Продолжительность: 26 x ~ 00:26:30
Год выпуска: 1978
Русские субтитры: нет
Перевод: Дубляж (Лексикон) / Одноголосый закадровый (Александр Середа)
Режиссёр: Альбер Барилье
Роли озвучивали: Роже Карель, Энни Балестра, Ален Дорваль, Винсент Ропион, Заира Бенбабис, Жилль Лорен, Франсис Лакс, Хосе Люссьони, Джозеф Мейнред, Сади Реббо, Фредерик Витта

Описание: Сериал "Жил-был Человек" - начало мультипликационного сериала «Жили-были...». Вместе с Человеком мы совершим путешествия в новые незнакомые места. Они расскажут о развитии и становлении человека на нашей Земле. Давным-давно... Человек рассказывает об истории человечества, происхождении жизни, вплоть до конца двадцатого века.Охвачены основные исторические этапы,становление семьи,смешиваются основные моменты истории и повседневной жизни. В дополнение к комментариям Off-камера, часы, с двумя глазами и руками, с указанием даты событий. Во Франции было выпущено семь детских мультсериалов, несущих познавательный и развивающий характер.

Список серий:
00. Интро
01. И возникла Земля
02. Неандерталец
03. Кроманьонец
04. Плодородные земли
05. Первые империи
06. Времена Перикла
07. Римская империя
08. Исламские завоевания
09. Каролинги
10. Эпоха викингов
11. Строители соборов
12. Путешествия Марко Поло
13. Столетняя война
14. Возрождение (Ренессанс)
15. Расцвет Испании
16. Англия времен Елизаветы
17. Золотой век Нидерландов
18. Людовик XIV
19. Россия времен Петра Первого
20. Эпоха Просвещения.

21. Америка
22. Французская революция
23. Весна народов
24. Прекрасная эпоха!
25. Безумные годы
26. Земля.Куда ведет будущее



Семпл: http://multi-up.com/289112

Качество : DVDRip
Формат: mkv
Видео: x264, ~ 1400 Кбит/с, 704x536
Аудио 1: Русский(Дубляж Лексикон) (АС3, 2 ch, 160 Кбит/с)
Аудио 2: Русский(Одноголосый А.Середа) (AC3, 2 ch, 192 Кбит/с)
Аудио 3: Французский (AC3, 2 ch, 192 Кбит/с)
Аудио 4: Английский (AC3, 2 ch, 160 Кбит/с)
Аудио 5: Польский (AC3, 2 ch, 128 Кбит/с)
Аудио 6: Украинский (3,26-я серия) (AC3, 2 ch, 160 Кбит/с)
Субтитры: отсутствуют



Любимый сериал детства. Нигде не мог найти. И вот...
Одноголосый перевод сделал я сам, с польской дорожки, поэтому не стоит особенно возражать, так как русского перевода не существует вообще! В меру свободного времени со временем выложу все серии. Плюс к этому оставляю польскую и французскую аудиодорожки.Да,здесь представлена полная версия мультфильма,так как в трех скаченных с разных мест версий этого мульта не хватает по 3-4 минуты.На месте недостающих частей в английской,немецкой и испанской звуковых дорожках - тишина.Если кому надо,то лишние звуковые дорожки удаляются за несколько секунд в маленькой бесплатной программе VirtualDubMod 1.5.10.2.2542 - Файл-Открыть-Потоки-Потоки-Отключить-ОК-Сохранить как... Во вкладке видео дожно быть выбрано Прямопотоковое копирование.в этой же программе можно обрезать начальные и финальные титры.

На случай отсутствия сидов раздача залита в файлохранилище
Для России fex.net/view/9125212
Для Украины ex.ua/view/9125212
Персонажи:
Маэстро(Maestro) - символ целой серии "Однажды ...". С длинной белой бородой, которая охватывает все его тело. Это великий ученый и дед Пьерротa.
Пьер(Pierre) - главный герой. Как правило, имеет длинные волосы. Он любит инновации.
Пьеррет(Pierrette) - жена Пьера. Она любит своего сына.
Пьерро(Pierrot) - сын Пьера и Пьеррет. Очень остроумный. Он проводит много времени со своим дедушкой Маэстро.
Пьерретта - дочь Пьера и Пьеррет.Любит моду. Немного плаксива.
Пси(Psi)-появляется позднее.Очень красивая темно-волосая девушка,показана в основном как подруга или жена Пьера.
Силач(le Gros)(потом Джамбо) - друг или брат Пьера. Это самый сильный человек в мире.Очень не любит Wredniaka и Конус. Он часто защищает Пьера, Пьеретт(и Psi в продолжениях) от хулиганов.
Жена Силача - Очень интеллигентна и рассудительна.Подружка Пьеррет
Толстячок(Petit Gros) - сын Силача.Друг Пьеррота
Вредитель(le Teigneux) - эгоистичным и злой человек, который всегда представляет лукавого. У него красный (позднее оранжевый)кругляком нос.Консерватор как в области
технологий, а также политики.
Подлый - сын Вредителя. Он появляется в нескольких эпизодах.
Карлик(le Nabot) - низенький и жадный слуга Вредителя. У него оранжевый нос в виде хот-дога.Консервативный как в области технологий,так и политики.
Лилипут - сын Карлика. Он похож на своего отца, только меньше
Отвратительный - Вредителя отец. Появляется в эпизоде Первых империй.
General
Complete name : E:\Zhil-byl.chelovek.(1-26.serii.iz.26).1978.XviD.DVDRip.Reliz.Kinozal.TV\Zhil-byl.chelovek.(01.serija.iz.26).Zemla.1978.XviD.DVDRip.avi
Format : AVI
Format/Info : Audio Video Interleave
File size : 442 MiB
Duration : 25mn 9s
Overall bit rate : 2 455 Kbps
Writing application : VirtualDubModRus 1.5.10.2 (build 2542/release)
Writing library : VirtualDubMod build 2542/release

Video
ID : 0
Format : MPEG-4 Visual
Format profile : Advanced Simple@L5
Format settings, BVOP : Yes
Format settings, QPel : No
Format settings, GMC : No warppoints
Format settings, Matrix : Default (MPEG)
Codec ID : XVID
Codec ID/Hint : XviD
Duration : 25mn 9s
Bit rate : 1 596 Kbps
Width : 720 pixels
Height : 536 pixels
Display aspect ratio : 4:3
Frame rate : 25.000 fps
Color space : YUV
Chroma subsampling : 4:2:0
Bit depth : 8 bits
Scan type : Progressive
Bits/(Pixel*Frame) : 0.165
Stream size : 287 MiB (65%)
Writing library : XviD 1.2.1 (UTC 2008-12-04)

Audio #1
ID : 1
Format : MPEG Audio
Format version : Version 1
Format profile : Layer 3
Codec ID : 55
Codec ID/Hint : MP3
Duration : 25mn 9s
Bit rate mode : Constant
Bit rate : 192 Kbps
Channel(s) : 2 channels
Sampling rate : 48.0 KHz
Stream size : 34.5 MiB (8%)
Alignment : Aligned on interleaves
Interleave, duration : 40 ms (1.00 video frame)
Interleave, preload duration : 504 ms

Audio #2
ID : 2
Format : MPEG Audio
Format version : Version 1
Format profile : Layer 3
Codec ID : 55
Codec ID/Hint : MP3
Duration : 25mn 9s
Bit rate mode : Constant
Bit rate : 128 Kbps
Channel(s) : 2 channels
Sampling rate : 44.1 KHz
Stream size : 23.0 MiB (5%)
Alignment : Split accross interleaves
Interleave, duration : 40 ms (1.00 video frame)
Interleave, preload duration : 500 ms

Audio #3
ID : 3
Format : AC-3
Format/Info : Audio Coding 3
Mode extension : CM (complete main)
Codec ID : 2000
Duration : 25mn 9s
Bit rate mode : Constant
Bit rate : 192 Kbps
Channel(s) : 2 channels
Channel positions : Front: L R
Sampling rate : 48.0 KHz
Bit depth : 16 bits
Stream size : 34.5 MiB (8%)
Alignment : Split accross interleaves
Interleave, duration : 40 ms (1.00 video frame)
Interleave, preload duration : 500 ms

Audio #4
ID : 4
Format : AC-3
Format/Info : Audio Coding 3
Mode extension : CM (complete main)
Codec ID : 2000
Duration : 25mn 9s
Bit rate mode : Constant
Bit rate : 192 Kbps
Channel(s) : 2 channels
Channel positions : Front: L R
Sampling rate : 48.0 KHz
Bit depth : 16 bits
Stream size : 34.5 MiB (8%)
Alignment : Split accross interleaves
Interleave, duration : 40 ms (1.00 video frame)
Interleave, preload duration : 500 ms

Audio #5
ID : 5
Format : MPEG Audio
Format version : Version 1
Format profile : Layer 3
Codec ID : 55
Codec ID/Hint : MP3
Duration : 24mn 47s
Bit rate mode : Constant
Bit rate : 128 Kbps
Channel(s) : 2 channels
Sampling rate : 44.1 KHz
Stream size : 22.7 MiB (5%)
Alignment : Split accross interleaves
Interleave, duration : 41 ms (1.02 video frame)
Interleave, preload duration : 500 ms
Правила, инструкции, FAQ!!!
Торрент  Добавлен [28 янв 2015, 00:06] Скачать торрент
Скачать торрент
[ Размер 31.32 КБ / Просмотров 20 ]

Статус
Проверен 
 
Размер  11.03 ГБ
Приватный: Нет (DHT включён)
.torrent скачан  2
Как залить торрент? | Как скачать Torrent? | Как смотреть и слушать онлайн?  
Гость
 


Вернуться в Обучающие издания для детей

Кто сейчас на конференции

Сейчас этот форум просматривают: нет зарегистрированных пользователей и гости: 0

   Наша команда  Удалить cookies конференции • Часовой пояс: UTC + 3 часа

Пользовательское соглашение  |  Для правообладателей  | 

cron