Идальго: Погоня в пустыне / Hidalgo (2004) BDRip


Статистика раздачи
Размер: 1.46 ГБ | Добавлен: 17 апр 2014, 23:31 | Скачали: 1
Сидеров: 7  [0 байт/сек]    Личеров: 2  [0 байт/сек]

Сообщение Гость » 17 апр 2014, 23:31

Идальго: Погоня в пустыне / Hidalgo (2004) BDRip


Год выпуска: 2004
Жанр: Вестерн, Боевик, Приключения

Описание фильма:
В 1890 году богатый шейх впервые пригласил участвовать в соревнованиях иностранца. Им стал американец Фрэнк Хопкинс, лучший ковбой и наездник на всем Диком Западе. Влиятельный шейх поставил сумасшедшие деньги на победу иноземца. Теперь его судьба зависит от противостояния американского выскочки на мустанге по кличке Идальго и лучших арабских жеребцов, управляемых самыми искусными наездниками-бедуинами. И далеко не всех устраивает победа дерзкого янки в традиционном арабском дерби, ведь она может принести одним — славу, а другим — смерть. И для Фрэнка победа становится не только делом чести, но и единственной возможностью выжить в жарких песках бескрайней пустыни…

Режиссер: Джо Джонстон
Актеры: Вигго Мортенсен, Зулейха Робинсон, Омар Шариф, Луиза Ломбард, Адам Алекси-Маль, Саид Тагмауи, Сайлас Карсон, Харш Найяр, Дж.К. Симмонс, Адони Маропис, Виктор Тэлмадж, Питер Менса, Джошуа Вулф Коулмен, Фрэнки Мванги, Флойд 'Ред Кроу' Уэстермен, Элизабет Берридж, С. Томас Хауэлл, Стивен Римкус, Джерри Хардин, Фрэнк Коллисон, Крис Оуэн, Маршалл Манеш

Продолжительность: 02:16:25
Качество видео: BDRip
Перевод: Авторский (одноголосый, закадровый) Ю.Сербин

___________________________
Видеокодек: Xvid
Битрейт видео: ~1332kbps
Размер кадра: 720x304
аудио: 48 kHz, AC3 Dolby Digital, 2/0 (L,R) ch, ~192.00 kbps
Общее
Полное имя : Hidalgo.2004.BDRip.avi
Формат : AVI
Формат/Информация : Audio Video Interleave
Размер файла : 1,46 Гбайт
Продолжительность : 2 ч. 16 м.
Общий поток : 1533 Кбит/сек
Программа кодирования : VirtualDubMod 1.5.10.3 | www.virtualdub-fr.org || (build 2550/release)
Библиотека кодирования : VirtualDubMod build 2550/release

Видео
Идентификатор : 0
Формат : MPEG-4 Visual
Профиль формата : Advanced Simple@L5
Параметр BVOP формата : 2
Параметр QPel формата : Нет
Параметр GMC формата : Без точки перехода
Параметр матрицы формата : Выборочная
Идентификатор кодека : XVID
Идентификатор кодека/Подсказка : XviD
Продолжительность : 2 ч. 16 м.
Битрейт : 1332 Кбит/сек
Ширина : 720 пикс.
Высота : 304 пикс.
Соотношение сторон : 2,35:1
Частота кадров : 23,976 кадр/сек
Цветовое пространство : YUV
Подвыборка цветности : 4:2:0
Битовая глубина : 8 бит
Тип развёртки : Прогрессивная
Метод сжатия : С потерями
Бит/(Пиксели*Кадры) : 0.254
Размер потока : 1,27 Гбайт (87%)
Библиотека кодирования : XviD 1.2.1 (UTC 2008-12-04)

Аудио
Идентификатор : 1
Формат : AC-3
Формат/Информация : Audio Coding 3
Расширение режима : CM (complete main)
Идентификатор кодека : 2000
Продолжительность : 2 ч. 16 м.
Вид битрейта : Постоянный
Битрейт : 192 Кбит/сек
Канал(ы) : 2 канала(ов)
Расположение каналов : Front: L R
Частота : 48,0 КГц
Битовая глубина : 16 бит
Метод сжатия : С потерями
Размер потока : 187 Мбайт (13%)
Выравнивание : Разделение по промежуткам
Продолжительность промежутка : 42 мс. (1,00 видеокадр)
Время предзагрузки промежутка : 500 ms
Скриншоты:

Правила, инструкции, FAQ!!!
Торрент  Добавлен [17 апр 2014, 23:31] Скачать торрент
Скачать торрент
[ Размер 15.43 КБ / Просмотров 45 ]

Статус
Проверен 
 
Размер  1.46 ГБ
Приватный: Нет (DHT включён)
.torrent скачан  1
Как залить торрент? | Как скачать Torrent? | Как смотреть и слушать онлайн?  
Гость
 


Вернуться в Вестерн

Кто сейчас на конференции

Сейчас этот форум просматривают: нет зарегистрированных пользователей и гости: 0

   Наша команда  Удалить cookies конференции • Часовой пояс: UTC + 3 часа

Пользовательское соглашение  |  Для правообладателей  | 

croncron