(Hip-Hop) The Rapsody Overture - Hip Hop Meets Classic - 1997, mp3, 320kbps


Статистика раздачи
Размер: 118.54 МБ | Добавлен: 16 дек 2017, 08:01 | Скачали: 36
Сидеров: 7  [0 байт/сек]    Личеров: 54  [0 байт/сек]

Сообщение Гость » 16 дек 2017, 08:01

(Hip-Hop) The Rapsody Overture - Hip Hop Meets Classic - 1997, mp3, 320kbps
Страна: USA
Жанр: Hip-hop
Год выпуска: 1997
Формат: MP3
Битрейт аудио: 320 kbps
Продолжительность: 51.08 мин
Трэклист:
01. Instrumental - Intro
02. Xzibit - E Lucean Le Stelle
03. LL Cool J - Dear Mallika
04. Reprise - E Lucean Le Stelle
05. Warren G & Sissel - Prince Igor
06. Mother Superia - Belle Nuit
07. Jay - Praludium
08. Jay - Ach So Fromm
09. Redman - Syrinx
10. Onyx - Vissi D'Arte
11. Scoota - Schwanensee
12. Nikki D. - Recondita Armonica
13. Mobb Deep - Nessun Dorma
14. Warren G & Sissel - Prince Igor (Ries Class Jazz Extended)
Доп. информация: Рип сделан EAC V0.99 prebeta 4
Exact Audio Copy V0.99 prebeta 4 from 23. January 2008
Отчёт EAC об извлечении, выполненном 31. марта 2008, 19:27
Various / The Rapsody Overture - Hip Hop Meets Classic
Дисковод: Optiarc DVD RW AD-7173A Adapter: 0 ID: 0
Режим чтения : Достоверность
Использование точного потока : Да
Отключение кэша аудио : Да
Использование указателей C2 : Нет
Коррекция смещения при чтении : 48
Способность читать области Lead-in и Lead-out : Нет
Заполнение пропущенных сэмплов тишиной : Да
Удаление блоков с тишиной в начале и конце : Нет
При вычислениях CRC использовались нулевые сэмплы : Да
Интерфейс : Установленный внешний ASPI-интерфейс
Обработка зазоров : Не обнаружено, добавлено к предыдущему треку
Выходной формат : LAME MP3 Codec v0.9.0 - 3.97 (stable)
Формат сэмплов : 44100 Hz, 320 kbps CBR, Stereo
TOC извлечённого CD
Трек | Старт | Длительность | Начальный сектор | Конечный сектор
---------------------------------------------------------------------
1 | 0:00.00 | 1:14.60 | 0 | 5609
2 | 1:14.60 | 3:53.50 | 5610 | 23134
3 | 5:08.35 | 4:08.40 | 23135 | 41774
4 | 9:17.00 | 1:48.20 | 41775 | 49894
5 | 11:05.20 | 4:22.62 | 49895 | 69606
6 | 15:28.07 | 3:48.00 | 69607 | 86706
7 | 19:16.07 | 2:08.33 | 86707 | 96339
8 | 21:24.40 | 4:59.22 | 96340 | 118786
9 | 26:23.62 | 3:36.68 | 118787 | 135054
10 | 30:00.55 | 4:31.60 | 135055 | 155439
11 | 34:32.40 | 3:05.30 | 155440 | 169344
12 | 37:37.70 | 4:29.32 | 169345 | 189551
13 | 42:07.27 | 3:34.68 | 189552 | 205669
14 | 45:42.20 | 6:03.65 | 205670 | 232959
Трек 1
Имя файла E:\music\The Rapsody Overture - Hip Hop Meets Classic\Instrumental - Intro.mp3
Пиковый уровень 98.4 %
Качество трека 100.0 %
CRC копии 87B2A01D
Копирование... OK
Трек 2
Имя файла E:\music\The Rapsody Overture - Hip Hop Meets Classic\Xzibit - E Lucean Le Stelle.mp3
Пиковый уровень 99.5 %
Качество трека 100.0 %
CRC копии F6CEAC17
Копирование... OK
Трек 3
Имя файла E:\music\The Rapsody Overture - Hip Hop Meets Classic\LL Cool J - Dear Mallika.mp3
Пиковый уровень 98.8 %
Качество трека 100.0 %
CRC копии EF34F9A6
Копирование... OK
Трек 4
Имя файла E:\music\The Rapsody Overture - Hip Hop Meets Classic\Reprise - E Lucean Le Stelle.mp3
Пиковый уровень 98.8 %
Качество трека 99.9 %
CRC копии 72ED41BC
Копирование... OK
Трек 5
Имя файла E:\music\The Rapsody Overture - Hip Hop Meets Classic\Warren G & Sissel - Prince Igor.mp3
Пиковый уровень 98.8 %
Качество трека 100.0 %
CRC копии E7C6FA20
Копирование... OK
Трек 6
Имя файла E:\music\The Rapsody Overture - Hip Hop Meets Classic\Mother Superia - Belle Nuit.mp3
Пиковый уровень 98.9 %
Качество трека 100.0 %
CRC копии E6A8A4D2
Копирование... OK
Трек 7
Имя файла E:\music\The Rapsody Overture - Hip Hop Meets Classic\Jay - Praludium.mp3
Пиковый уровень 98.8 %
Качество трека 100.0 %
CRC копии CEA3EA1D
Копирование... OK
Трек 8
Имя файла E:\music\The Rapsody Overture - Hip Hop Meets Classic\Jay - Ach So Fromm.mp3
Пиковый уровень 99.9 %
Качество трека 100.0 %
CRC копии 425CDD59
Копирование... OK
Трек 9
Имя файла E:\music\The Rapsody Overture - Hip Hop Meets Classic\Redman - Syrinx.mp3
Пиковый уровень 96.5 %
Качество трека 100.0 %
CRC копии 447D6617
Копирование... OK
Трек 10
Имя файла E:\music\The Rapsody Overture - Hip Hop Meets Classic\Onyx - Vissi D'Arte.mp3
Пиковый уровень 98.8 %
Качество трека 100.0 %
CRC копии 0B18BC42
Копирование... OK
Трек 11
Имя файла E:\music\The Rapsody Overture - Hip Hop Meets Classic\Scoota - Schwanensee.mp3
Пиковый уровень 96.6 %
Качество трека 100.0 %
CRC копии 2C765C7A
Копирование... OK
Трек 12
Имя файла E:\music\The Rapsody Overture - Hip Hop Meets Classic\Nikki D. - Recondita Armonica.mp3
Пиковый уровень 99.4 %
Качество трека 100.0 %
CRC копии AC2582ED
Копирование... OK
Трек 13
Имя файла E:\music\The Rapsody Overture - Hip Hop Meets Classic\Mobb Deep - Nessun Dorma.mp3
Пиковый уровень 99.2 %
Качество трека 100.0 %
CRC копии 209BDE1B
Копирование... OK
Трек 14
Имя файла E:\music\The Rapsody Overture - Hip Hop Meets Classic\Warren G & Sissel - Prince Igor (Ries Class Jazz Extended).mp3
Пиковый уровень 99.5 %
Качество трека 100.0 %
CRC копии B9B1E144
Копирование... OK
Ошибок не произошло
Конец отчёта
Правила, инструкции, FAQ!!!
Торрент  Добавлен [16 дек 2017, 08:01] Скачать торрент
Скачать торрент
[ Размер 19.95 КБ / Просмотров 41 ]

Статус
Проверен 
 
Размер  118.54 МБ
Приватный: Нет (DHT включён)
.torrent скачан  36
Как залить торрент? | Как скачать Torrent? | Как смотреть и слушать онлайн?  
Гость
 


Вернуться в Rap, Hip-hop, R'n'B

Кто сейчас на конференции

Сейчас этот форум просматривают: нет зарегистрированных пользователей и гости: 0

   Наша команда  Удалить cookies конференции • Часовой пояс: UTC + 3 часа

Пользовательское соглашение  |  Для правообладателей  | 

croncron