(Groove Metal) [WEB] Teach Her Treason - Human Frailty (EP) - 2020, FLAC (tracks), lossless


Статистика раздачи
Размер: 105.93 МБ | Добавлен: 14 июн 2020, 09:01 | Скачали: 0
Сидеров: 0  [0 байт/сек]    Личеров: 0  [0 байт/сек]

Сообщение Гость » 14 июн 2020, 09:01

Teach Her Treason / Human Frailty (EP)
Жанр: Groove Metal
Носитель: WEB
Год издания: 2020-06-13
Страна исполнителя (группы): Canada
Аудиокодек: FLAC (*.flac)
Тип рипа: tracks
Продолжительность: 00:13:59
Источник: Deezer
Наличие сканов в содержимом раздачи: только обложка альбома
Треклист:
01. Human Frailty (3:58)
02. Abomination (3:07)
03. Hellpriest (3:39)
04. Post Truth World (3:15)
Код: Выделить всё
foobar2000 1.5.2 / Dynamic Range Meter 1.1.1
log date: 2020-06-12 16:03:49
--------------------------------------------------------------------------------
Analyzed: Teach Her Treason / Human Frailty - EP
--------------------------------------------------------------------------------
DR         Peak         RMS     Duration Track
--------------------------------------------------------------------------------
DR4       -1.01 dB    -6.00 dB      3:58 01-Human Frailty
DR4       -1.01 dB    -6.05 dB      3:07 02-Abomination
DR4       -1.01 dB    -5.93 dB      3:39 03-Hellpriest
DR5       -1.01 dB    -6.73 dB      3:15 04-Post Truth World
--------------------------------------------------------------------------------
Number of tracks:  4
Official DR value: DR4
Samplerate:        44100 Hz
Channels:          2
Bits per sample:   16
Bitrate:           995 kbps
Codec:             FLAC
================================================================================
Код: Выделить всё
-----------------------
DON'T MODIFY THIS FILE
-----------------------
PERFORMER: auCDtect Task Manager, ver. 1.6.0 RC1 build 1.6.0.1
Copyright (c) 2008-2010 y-soft. All rights reserved
[url=http://y-soft.org]http://y-soft.org[/url]
ANALYZER: auCDtect: CD records authenticity detector, version 0.8.2
Copyright (c) 2004 Oleg Berngardt. All rights reserved.
Copyright (c) 2004 Alexander Djourik. All rights reserved.
FILE: 04 Post Truth World.flac
  Size: 24612188 Hash: D87081D1A660EE8C04A95BFC62804E51 Accuracy: -m0
  Conclusion: CDDA 100%
  Signature: 0DED628CF0C34EB0C3A4B19F27AC1BA1E7F1E3E4
FILE: 03 Hellpriest.flac
  Size: 29943779 Hash: 10768C1FA18B147731423F931F155C57 Accuracy: -m0
  Conclusion: CDDA 100%
  Signature: F9F96D0C3D56E8533009AEA8037A355F8AF75AEB
FILE: 02 Abomination.flac
  Size: 25062643 Hash: 63C624CB8FAA3533D9B87476D424A618 Accuracy: -m0
  Conclusion: CDDA 100%
  Signature: 7E6881A717DC982DD8FD082684FA21D91438888E
FILE: 01 Human Frailty.flac
  Size: 30829387 Hash: 65DC43F88D6784A2EEF69E0413548BD7 Accuracy: -m0
  Conclusion: CDDA 100%
  Signature: BAC9BAE4BCE5F757657BF9C562AF393A4C88B9C8
Правила, инструкции, FAQ!!!
Торрент  Добавлен [14 июн 2020, 09:01] Скачать торрент
Скачать торрент
[ Размер 2.85 КБ / Просмотров 0 ]

Статус
Проверен 
 
Размер  105.93 МБ
Приватный: Нет (DHT включён)
.torrent скачан  0
Как залить торрент? | Как скачать Torrent? | Как смотреть и слушать онлайн?  
Гость
 


Вернуться в Heavy, Power, Progressive (Metal)

Кто сейчас на конференции

Сейчас этот форум просматривают: нет зарегистрированных пользователей и гости: 0

   Наша команда  Удалить cookies конференции • Часовой пояс: UTC + 3 часа

Пользовательское соглашение  |  Для правообладателей  | 

croncron