Фильмы Юрия Норштейна. Сборник мультфильмов (1966-1979) DVD5 [Японское издание, Реставрация Pioneer LDC]


Статистика раздачи
Размер: 4.27 ГБ | Добавлен: 15 фев 2014, 22:35 | Скачали: 2
Сидеров: 14  [0 байт/сек]    Личеров: 1  [0 байт/сек]

Сообщение Гость » 15 фев 2014, 22:35

Фильмы Юрия Норштейна. Сборник мультфильмов / Фильмы Юрия Норштейна. Сборник мультфильмов (1966-1979) DVD5 [Японское издание, Реставрация Pioneer LDC]

Год выпуска: 1966-1979
Жанр: Рисованная анимация, Кукольный, Детский

Описание:
Творчество Юрия Норштейна, имя которого известно всему миру, интересно и взрослым, и детям. Для детей его мультфильмы - это ожившая сказка, для взрослых - оригинальное искусство. Его фильмы пронизаны поэзией, красотой, самобытным видением мира. Им присуща неповторимая своеобразная авторская интонация. Пересказывать их столь же бессмысленно, как пытаться пересказывать стихи, музыку...

Режиссер: Юрий Норштейн, Аркадий Тюрин, Иван Иванов-Вано, Вадим Курчевский

Список фильмов:
1. 25 - первый день 1968
2. Сеча при Керженце 1971
3. Лиса и Заяц 1973
4. Цапля и Журавль 1974
5. Ежик в тумане 1975
6. Сказка сказок 1979
7. Мой зеленый крокодил 1966 (мультипликатор)
8. Времена года 1969

Продолжительность: 01:38:58
Качество видео: DVD5

Видео: MPEG 2, 720x480 (4:3), 23.976 fps, 9 800 Kbps (1.183 bit/pixel)
Аудио: AC-3, 48.0 KHz, 2 ch, 384 Kbps, CBR
25-е, первый день

"25-е — Первый день", моя первая работа (совместно с Аркадием Тюриным), сделана в 1967—1968 годах. Мы задумывали революционно-романтический этюд, в котором живопись русского и европейского авангарда 10-20-х годов соединилась с музыкой великого композитора Дмитрия Шостаковича. Живопись этого времени невероятно кинематографична; в ней скрыта, сжата метафизика времени. Мы делали фильм с ощущением Революции как начала мощного культурного процесса. Нас вдохновлял тот факт, что произведения художников были наполнены идеей обновления мира, творения своей судьбы.
• Продолжительность: 8 мин
• Год: 1968
• Режиссер: Аркадий Тюрин, Юрий Норштейн
• Сценарий:Юрий Норштейн, Аркадий Тюрин
• Оператор: В. Саруханов

Скриншоты:
Сеча при Керженце

По мотивам легеды и симфонической поэмы Римского-Корсакова о невидимом граде Китеже, который ушел под воды озера, чтобы избежать татарского нашествия. В фильме использованы мотивы русской фресковой живописи XIV-XVI веков.
• Продолжительность: 10 мин
• Год: 1971
• Режиссер: Иван Иванов-Вано, Юрий Норштейн
• Сценарий: И. Иванова-Вано
• Оператор: В. Саруханов

Скриншоты:
Лиса и заяц

По русской народной сказке в пересказе В.Даля
• Продолжительность: 12 мин
• Год: 1973
• Режиссер: Юрий Норштейн
• Сценарий: Юрий Норштейн
• Оператор: Т. Бунимович
Скриншоты:
Цапля и журавль

По мотивам русской сказки в пересказе В.Даля
• Продолжительность: 10 мин
• Год: 1974
• Режиссер: Юрий Норштейн
• Сценарий: Р. Качанов, Ю. Норштейн
• Оператор: А. Жуковский
Скриншоты:
Ёжик в тумане

Главный герой, лесной Ёжик, пускается в путь, чтобы навестить своего приятеля, Медвежонка, с которым он пьет по вечерам чай и считает звёзды.
• Продолжительность: 10 мин
• Год: 1975
• Режиссер: Юрий Норштейн
• Сценарий: С. Козлов
• Оператор: А. Жуковский

Скриншоты:
Сказка сказок

Это поразительный автобиографический рассказ о маленьком мальчике, жизнь которого пришлась на лишения Второй Мировой войны. Мультфильм создан в духе нелинейного повествования в виде круговорота воспоминаний самых разных тем и образов, неразрывно связанных с их автором – блестящим русским художником Юрием Норштейном.
• Продолжительность: 28 мин
• Год: 1979
• Режиссер: Юрий Норштейн
• Сценарий: Л. Петрушевская, Ю, Норштейн
• Оператор: И.Скидан-Босин

Скриншоты:
Мой зеленый крокодил

Невзрачному Крокодилу и красавице Корове нравилось одно и то же: они любили цветы и листья. И потому полюбили друг друга.
• Продолжительность: 9 мин
• Год: 1966
• Режиссер: Вадим Курчевский
• Сценарий: Генрих Сапгир, Геннадий Цыферов
• Оператор: Иосиф Голомб
• Мультипликатор: Ю.Норштейн

Скриншоты:
Времена года

Поэтическое произведение на тему музыкальных пьес «Осень», «Тройка» из фортепьянного цикла П. И. Чайковского «Времена года».
• Продолжительность: 9 мин
• Год: 1969
• Режиссер: Иван Иванов-Вано, Юрий Норштейн
• Сценарий: Иван Иванов-Вано
• Художник: Владимир Наумов, Марина Соколова

Скриншоты:
Издание Pioneer LDC.

За основу Японского издания взят трансфер Pioneer.

Юрий Норштейн о "Крупном плане": "Другое дело, как ими торгуют и как прокатывают по ТВ. Вопрос не ко мне. Я бы мог подробно рассказать о деляческом «Крупном плане», который в 98-м году выпустил мои фильмы со стопроцентным браком. Но мы с оператором Жуковским не смогли оспорить в суде их непорядочность. Ловкость юриста — и мы в проигрыше. Несколько лет спустя они выпустили новый диск — лучше первого, но тоже с большим количеством искажений. Выпустили, но передо мной так и не извинились. Деловая честь мундира выше порядочности. Вот он в чистом виде рынок. «Вшивый рынок», писал Пушкин".

Этот релиз интересен "Ежиком в тумане", гораздо более близким по цветовой гамме к оригинальной пленочной копии, что можно увидеть, если сравнить копии с эскизами Франчески Ярбусовой. Хотя, на мой взгляд, цветовая гамма в других фильмах также более естественна, чем в реставрации "КП".

Меню на японском языке.

Дополнительных материалов на диске нет.
Видео
Идентификатор : 224 (0xE0)
Формат : MPEG Video
Версия формата : Version 2
Профиль формата : Main@Main
Параметр BVOP формата : Да
Параметр матрицы формата : Выборочная
Параметр GOP формата : Variable
Продолжительность : 13 м.
Вид битрейта : Переменный
Битрейт : 10,2 Мбит/сек
Максимальный битрейт : 9800 Кбит/сек
Ширина : 720 пикселей
Высота : 480 пикселей
Соотношение сторон : 4:3
Частота кадров : 23,976 кадра/сек
Стандарт вещания : NTSC
Цветовое пространство : YUV
Субдискретизация насыщенности : 4:2:0
Битовая глубина : 8 бит
Тип развёртки : Прогрессивная
Порядок развёртки : 2:3 Pulldown
Метод сжатия : С потерями
Бит/(Пиксели*Кадры) : 1.225
Временной код первого кадра : 01:46:51:05
Оригинал временного кода : Group of pictures header
Размер потока : 967 Мбайт (94%)

Аудио
Идентификатор : 189 (0xBD)-128 (0x80)
Формат : AC-3
Формат/Информация : Audio Coding 3
Расширение режима : CM (complete main)
Параметр Endianness формата : Big
Режим смешивания : DVD-Video
Продолжительность : 13 м.
Вид битрейта : Постоянный
Битрейт : 384 Кбит/сек
Каналы : 2 канала
Расположение каналов : Front: L R
Частота : 48,0 КГц
Битовая глубина : 16 бит
Метод сжатия : С потерями
Задержка видео : -278 мс.
Размер потока : 36,6 Мбайт (4%)

Меню
Title: yuri_norshtein_japan
Size: 4.27 Gb ( 4 475 982,00 KBytes ) - DVD-5
Enabled regions: 1, 2, 3, 4, 5, 6, 7, 8

VTS_01 :
Play Length: 00:08:57+00:10:05+00:12:10+00:09:55+00:10:21+00:29:02+00:09:08+00:09:20+01:39:14+00:00:39
Video: NTSC 4:3 (720x480) VBR
Audio:
Russian (Dolby AC3, 2 ch)
Subtitles:
Japanese

* Menus Information *

VIDEO_TS Menu
Video:
NTSC 4:3 (720x480) VBR
Japanese Language Unit :
Title Menu

VTS_01 Menu
Video:
NTSC 4:3 (720x480) VBR
Japanese Language Unit :
Root Menu
Скриншоты:



Правила, инструкции, FAQ!!!
Торрент  Добавлен [15 фев 2014, 22:35] Скачать торрент
Скачать торрент
[ Размер 22.73 КБ / Просмотров 33 ]

Статус
Проверен 
 
Размер  4.27 ГБ
Приватный: Нет (DHT включён)
.torrent скачан  2
Как залить торрент? | Как скачать Torrent? | Как смотреть и слушать онлайн?  
Гость
 


Вернуться в Отечественные мультфильмы (DVD Video)

Кто сейчас на конференции

Сейчас этот форум просматривают: нет зарегистрированных пользователей и гости: 0

   Наша команда  Удалить cookies конференции • Часовой пояс: UTC + 3 часа

Пользовательское соглашение  |  Для правообладателей  | 

croncron