Enigma - Music for showers № 1 / Видеоклипы (2006-2013) [H.264/1080p] WEBRip


Статистика раздачи
Размер: 2.3 ГБ | Добавлен: 20 май 2014, 12:22 | Скачали: 29
Сидеров: 99  [0 байт/сек]    Личеров: 15  [0 байт/сек]

Сообщение Гость » 20 май 2014, 12:22

Enigma - Music for showers № 1 (2006-2013) WEBRip

Исполнитель: Enigma
Песня: Music for showers
Год выпуска: 2006-2013
Жанр: Alternative, New Age, Electronic, Ambient
Контейнер: MP4
Кол-во клипов: 12
Продолжительность: 01:07:20

Описание:
Enigma (произносится как энигма, дословно — загадка, головоломка, что-то таинственное, невыразимое; шарада или сложная задача) — музыкальный проект, созданный Мишелем Крету в 1990 году. Мишель является композитором и продюсером, его бывшая жена, певица Сандра Крету, часто исполняла вокальные партии в композициях «Энигмы». В рамках проекта выпущено 7 студийных альбомов, 19 синглов и несколько сборников. Проект существует только как студийный, его участники не выступают с концертами.
Представляю первую коллекцию (Music for showers № 1) Enigma (2006-2013). Собственная сборка.

Треклист:
1.Enigma - Age of Loneliness (Enigmatic Club Mix) (00:06:17)
2. Enigma - From East to West (00:04:30)
3. Enigma - Gravity Of Love (Footage) (00:04:15)
4. Enigma - I Love You ... I'll Kill You (00:08:05)
5. Enigma - Mea Culpa (Fading Shades) (00:06:35)
6. Enigma - Metamorphosis (00:09:37)
7. Enigma - MMX The Social Song (00:04:22)
8. Enigma - Page of Cups (00:07:10)
9. Enigma - Principles of Lust (00:03:30)
10. Enigma - Return To Innocence (00:04:50)
11. Enigma - Sadeness (00:04:14)
12. Enigma - Sensing The Spheres (00:05:45)

Видеокодек: MPEG-4 AVC/H.264
Битрейт видео: 5.978 ~ 4.403 kbps avg, 0.115 ~ 0.079 bit.pixel
Размер кадра: 1920:1080 (16:9), 23.976 ~ 29.970fps
Качество видео: WEBRip
Аудиокодек: AAC, 2 ch, stereo
Битрейт аудио: 144 ~ 152 Kbps avg
Общее
Полное имя : E:\Enigma - (Music for showers № 1)\Enigma - Age of Loneliness (Enigmatic Club Mix).mp4
Формат : MPEG-4
Профиль формата : Base Media
Идентификатор кодека : isom
Размер файла : 204 Мбайт
Продолжительность : 6 м. 17 с.
Общий поток : 4530 Кбит/сек
Дата кодирования : UTC 2011-10-19 13:36:31
Дата пометки : UTC 2011-10-19 13:36:31
Программа кодирования : Lavf54.63.104

Видео
Идентификатор : 1
Формат : AVC
Формат/Информация : Advanced Video Codec
Профиль формата :
Параметр CABAC формата : Да
Параметр ReFrames формата : 1 кадр
Идентификатор кодека : avc1
Идентификатор кодека/Информация : Advanced Video Coding
Продолжительность : 6 м. 17 с.
Вид битрейта : Переменный
Битрейт : 4405 Кбит/сек
Ширина : 1920 пикс.
Высота : 1080 пикс.
Соотношение сторон : 16:9
Режим частоты кадров : Постоянный
Частота кадров : 24,000 кадр/сек
Цветовое пространство : YUV
Подвыборка цветности : 4:2:0
Битовая глубина : 8 бит
Тип развёртки : Прогрессивная
Бит/(Пиксели*Кадры) : 0.089
Размер потока : 197 Мбайт (97%)
Библиотека кодирования : x264 core 129
Настройки программы : cabac=1 / ref=1 / deblock=1:0:0 / analyse=0x1:0x131 / me=dia / subme=2 / psy=1 / psy_rd=1.00:0.00 / mixed_ref=0 / me_range=16 / chroma_me=1 / trellis=0 / 8x8dct=0 / cqm=0 / deadzone=21,11 / fast_pskip=1 / chroma_qp_offset=0 / threads=2 / lookahead_threads=1 / sliced_threads=0 / nr=0 / decimate=1 / interlaced=0 / bluray_compat=0 / constrained_intra=0 / bframes=0 / weightp=2 / keyint=250 / keyint_min=25 / scenecut=40 / intra_refresh=0 / rc_lookahead=40 / rc=abr / mbtree=1 / bitrate=4405 / ratetol=1.0 / qcomp=0.60 / qpmin=10 / qpmax=51 / qpstep=4 / ip_ratio=1.41 / aq=1:1.00
Дата кодирования : UTC 2011-10-19 13:36:31
Дата пометки : UTC 2011-10-19 13:36:31

Аудио
Идентификатор : 2
Формат : AAC
Формат/Информация : Advanced Audio Codec
Профиль формата : LC
Идентификатор кодека : 40
Продолжительность : 6 м. 17 с.
Вид битрейта : Переменный
Битрейт : 151 Кбит/сек
Максимальный битрейт : 176,4 Кбит/сек
Каналы : 2 канала
Расположение каналов : Front: L R
Частота : 44,1 КГц
Метод сжатия : С потерями
Размер потока : 6,80 Мбайт (3%)
Дата кодирования : UTC 2011-10-19 13:36:31
Дата пометки : UTC 2011-10-19 13:36:31
Общее
Полное имя : E:\Enigma - (Music for showers № 1)\Enigma - From East to West.mp4
Формат : MPEG-4
Профиль формата : Base Media
Идентификатор кодека : isom
Размер файла : 152 Мбайт
Продолжительность : 4 м. 30 с.
Общий поток : 4721 Кбит/сек
Дата кодирования : UTC 2012-01-15 22:20:49
Дата пометки : UTC 2012-01-15 22:20:49
Программа кодирования : Lavf54.63.104

Видео
Идентификатор : 1
Формат : AVC
Формат/Информация : Advanced Video Codec
Профиль формата :
Параметр CABAC формата : Да
Параметр ReFrames формата : 1 кадр
Идентификатор кодека : avc1
Идентификатор кодека/Информация : Advanced Video Coding
Продолжительность : 4 м. 30 с.
Вид битрейта : Переменный
Битрейт : 4496 Кбит/сек
Ширина : 1920 пикс.
Высота : 1080 пикс.
Соотношение сторон : 16:9
Режим частоты кадров : Постоянный
Частота кадров : 25,000 кадр/сек
Цветовое пространство : YUV
Подвыборка цветности : 4:2:0
Битовая глубина : 8 бит
Тип развёртки : Прогрессивная
Бит/(Пиксели*Кадры) : 0.087
Размер потока : 147 Мбайт (97%)
Библиотека кодирования : x264 core 129
Настройки программы : cabac=1 / ref=1 / deblock=1:0:0 / analyse=0x1:0x131 / me=dia / subme=2 / psy=1 / psy_rd=1.00:0.00 / mixed_ref=0 / me_range=16 / chroma_me=1 / trellis=0 / 8x8dct=0 / cqm=0 / deadzone=21,11 / fast_pskip=1 / chroma_qp_offset=0 / threads=2 / lookahead_threads=1 / sliced_threads=0 / nr=0 / decimate=1 / interlaced=0 / bluray_compat=0 / constrained_intra=0 / bframes=0 / weightp=2 / keyint=250 / keyint_min=25 / scenecut=40 / intra_refresh=0 / rc_lookahead=40 / rc=abr / mbtree=1 / bitrate=4496 / ratetol=1.0 / qcomp=0.60 / qpmin=10 / qpmax=51 / qpstep=4 / ip_ratio=1.41 / aq=1:1.00
Дата кодирования : UTC 2012-01-15 22:20:49
Дата пометки : UTC 2012-01-15 22:20:49

Аудио
Идентификатор : 2
Формат : AAC
Формат/Информация : Advanced Audio Codec
Профиль формата : LC
Идентификатор кодека : 40
Продолжительность : 4 м. 30 с.
Вид битрейта : Переменный
Битрейт : 152 Кбит/сек
Максимальный битрейт : 176,4 Кбит/сек
Каналы : 2 канала
Расположение каналов : Front: L R
Частота : 44,1 КГц
Метод сжатия : С потерями
Размер потока : 4,90 Мбайт (3%)
Дата кодирования : UTC 2012-01-15 22:20:49
Дата пометки : UTC 2012-01-15 22:20:49
Общее
Полное имя : E:\Enigma - (Music for showers № 1)\Enigma - Gravity Of Love (Footage).mp4
Формат : MPEG-4
Профиль формата : Base Media
Идентификатор кодека : isom
Размер файла : 145 Мбайт
Продолжительность : 4 м. 15 с.
Общий поток : 4753 Кбит/сек
Дата кодирования : UTC 2009-09-10 08:46:18
Дата пометки : UTC 2009-09-10 08:46:18
Программа кодирования : Lavf54.63.104

Видео
Идентификатор : 1
Формат : AVC
Формат/Информация : Advanced Video Codec
Профиль формата :
Параметр CABAC формата : Да
Параметр ReFrames формата : 1 кадр
Идентификатор кодека : avc1
Идентификатор кодека/Информация : Advanced Video Coding
Продолжительность : 4 м. 15 с.
Вид битрейта : Переменный
Битрейт : 4405 Кбит/сек
Ширина : 1920 пикс.
Высота : 1080 пикс.
Соотношение сторон : 16:9
Режим частоты кадров : Постоянный
Частота кадров : 24,000 кадр/сек
Цветовое пространство : YUV
Подвыборка цветности : 4:2:0
Битовая глубина : 8 бит
Тип развёртки : Прогрессивная
Бит/(Пиксели*Кадры) : 0.089
Размер потока : 140 Мбайт (97%)
Библиотека кодирования : x264 core 129
Настройки программы : cabac=1 / ref=1 / deblock=1:0:0 / analyse=0x1:0x131 / me=dia / subme=2 / psy=1 / psy_rd=1.00:0.00 / mixed_ref=0 / me_range=16 / chroma_me=1 / trellis=0 / 8x8dct=0 / cqm=0 / deadzone=21,11 / fast_pskip=1 / chroma_qp_offset=0 / threads=2 / lookahead_threads=1 / sliced_threads=0 / nr=0 / decimate=1 / interlaced=0 / bluray_compat=0 / constrained_intra=0 / bframes=0 / weightp=2 / keyint=250 / keyint_min=25 / scenecut=40 / intra_refresh=0 / rc_lookahead=40 / rc=abr / mbtree=1 / bitrate=4405 / ratetol=1.0 / qcomp=0.60 / qpmin=10 / qpmax=51 / qpstep=4 / ip_ratio=1.41 / aq=1:1.00
Дата кодирования : UTC 2009-09-10 08:46:18
Дата пометки : UTC 2009-09-10 08:46:18

Аудио
Идентификатор : 2
Формат : AAC
Формат/Информация : Advanced Audio Codec
Профиль формата : LC
Идентификатор кодека : 40
Продолжительность : 4 м. 15 с.
Вид битрейта : Переменный
Битрейт : 144 Кбит/сек
Максимальный битрейт : 176,4 Кбит/сек
Каналы : 2 канала
Расположение каналов : Front: L R
Частота : 44,1 КГц
Метод сжатия : С потерями
Размер потока : 4,33 Мбайт (3%)
Дата кодирования : UTC 2009-09-10 08:46:18
Дата пометки : UTC 2009-09-10 08:46:18
Общее
Полное имя : E:\Enigma - (Music for showers № 1)\Enigma - I Love You ... I'll Kill You.mp4
Формат : MPEG-4
Профиль формата : Base Media
Идентификатор кодека : isom
Размер файла : 267 Мбайт
Продолжительность : 8 м. 5 с.
Общий поток : 4622 Кбит/сек
Дата кодирования : UTC 2010-03-23 05:31:39
Дата пометки : UTC 2010-03-23 05:31:39
Программа кодирования : Lavf54.63.104

Видео
Идентификатор : 1
Формат : AVC
Формат/Информация : Advanced Video Codec
Профиль формата :
Параметр CABAC формата : Да
Параметр ReFrames формата : 1 кадр
Идентификатор кодека : avc1
Идентификатор кодека/Информация : Advanced Video Coding
Продолжительность : 8 м. 5 с.
Вид битрейта : Переменный
Битрейт : 4496 Кбит/сек
Ширина : 1920 пикс.
Высота : 1080 пикс.
Соотношение сторон : 16:9
Режим частоты кадров : Постоянный
Частота кадров : 25,000 кадр/сек
Цветовое пространство : YUV
Подвыборка цветности : 4:2:0
Битовая глубина : 8 бит
Тип развёртки : Прогрессивная
Бит/(Пиксели*Кадры) : 0.087
Размер потока : 258 Мбайт (97%)
Библиотека кодирования : x264 core 129
Настройки программы : cabac=1 / ref=1 / deblock=1:0:0 / analyse=0x1:0x131 / me=dia / subme=2 / psy=1 / psy_rd=1.00:0.00 / mixed_ref=0 / me_range=16 / chroma_me=1 / trellis=0 / 8x8dct=0 / cqm=0 / deadzone=21,11 / fast_pskip=1 / chroma_qp_offset=0 / threads=2 / lookahead_threads=1 / sliced_threads=0 / nr=0 / decimate=1 / interlaced=0 / bluray_compat=0 / constrained_intra=0 / bframes=0 / weightp=2 / keyint=250 / keyint_min=25 / scenecut=40 / intra_refresh=0 / rc_lookahead=40 / rc=abr / mbtree=1 / bitrate=4496 / ratetol=1.0 / qcomp=0.60 / qpmin=10 / qpmax=51 / qpstep=4 / ip_ratio=1.41 / aq=1:1.00
Дата кодирования : UTC 2010-03-23 05:31:39
Дата пометки : UTC 2010-03-23 05:31:39

Аудио
Идентификатор : 2
Формат : AAC
Формат/Информация : Advanced Audio Codec
Профиль формата : LC
Идентификатор кодека : 40
Продолжительность : 8 м. 5 с.
Вид битрейта : Переменный
Битрейт : 151 Кбит/сек
Максимальный битрейт : 176,4 Кбит/сек
Каналы : 2 канала
Расположение каналов : Front: L R
Частота : 44,1 КГц
Метод сжатия : С потерями
Размер потока : 8,73 Мбайт (3%)
Дата кодирования : UTC 2010-03-23 05:31:39
Дата пометки : UTC 2010-03-23 05:31:39
Общее
Полное имя : E:\Enigma - (Music for showers № 1)\Enigma - Mea Culpa (Fading Shades).mp4
Формат : MPEG-4
Профиль формата : Base Media
Идентификатор кодека : isom
Размер файла : 212 Мбайт
Продолжительность : 6 м. 35 с.
Общий поток : 4509 Кбит/сек
Дата кодирования : UTC 2011-08-29 14:39:23
Дата пометки : UTC 2011-08-29 14:39:23
Программа кодирования : Lavf54.63.104

Видео
Идентификатор : 1
Формат : AVC
Формат/Информация : Advanced Video Codec
Профиль формата :
Параметр CABAC формата : Да
Параметр ReFrames формата : 1 кадр
Идентификатор кодека : avc1
Идентификатор кодека/Информация : Advanced Video Coding
Продолжительность : 6 м. 35 с.
Вид битрейта : Переменный
Битрейт : 4403 Кбит/сек
Ширина : 1920 пикс.
Высота : 1080 пикс.
Соотношение сторон : 16:9
Режим частоты кадров : Постоянный
Частота кадров : 23,976 кадр/сек
Цветовое пространство : YUV
Подвыборка цветности : 4:2:0
Битовая глубина : 8 бит
Тип развёртки : Прогрессивная
Бит/(Пиксели*Кадры) : 0.089
Размер потока : 205 Мбайт (97%)
Библиотека кодирования : x264 core 129
Настройки программы : cabac=1 / ref=1 / deblock=1:0:0 / analyse=0x1:0x131 / me=dia / subme=2 / psy=1 / psy_rd=1.00:0.00 / mixed_ref=0 / me_range=16 / chroma_me=1 / trellis=0 / 8x8dct=0 / cqm=0 / deadzone=21,11 / fast_pskip=1 / chroma_qp_offset=0 / threads=2 / lookahead_threads=1 / sliced_threads=0 / nr=0 / decimate=1 / interlaced=0 / bluray_compat=0 / constrained_intra=0 / bframes=0 / weightp=2 / keyint=250 / keyint_min=25 / scenecut=40 / intra_refresh=0 / rc_lookahead=40 / rc=abr / mbtree=1 / bitrate=4403 / ratetol=1.0 / qcomp=0.60 / qpmin=10 / qpmax=51 / qpstep=4 / ip_ratio=1.41 / aq=1:1.00
Дата кодирования : UTC 2011-08-29 14:39:23
Дата пометки : UTC 2011-08-29 14:39:23

Аудио
Идентификатор : 2
Формат : AAC
Формат/Информация : Advanced Audio Codec
Профиль формата : LC
Идентификатор кодека : 40
Продолжительность : 6 м. 35 с.
Вид битрейта : Переменный
Битрейт : 150 Кбит/сек
Максимальный битрейт : 176,4 Кбит/сек
Каналы : 2 канала
Расположение каналов : Front: L R
Частота : 44,1 КГц
Метод сжатия : С потерями
Размер потока : 7,07 Мбайт (3%)
Дата кодирования : UTC 2011-08-29 14:39:23
Дата пометки : UTC 2011-08-29 14:39:23
Общее
Полное имя : E:\Enigma - (Music for showers № 1)\Enigma - Metamorphosis.mp4
Формат : MPEG-4
Профиль формата : Base Media
Идентификатор кодека : isom
Размер файла : 300 Мбайт
Продолжительность : 9 м. 37 с.
Общий поток : 4358 Кбит/сек
Дата кодирования : UTC 2011-10-25 20:51:31
Дата пометки : UTC 2011-10-25 20:51:31
Программа кодирования : Lavf54.63.104

Видео
Идентификатор : 1
Формат : AVC
Формат/Информация : Advanced Video Codec
Профиль формата :
Параметр CABAC формата : Да
Параметр ReFrames формата : 1 кадр
Идентификатор кодека : avc1
Идентификатор кодека/Информация : Advanced Video Coding
Продолжительность : 9 м. 37 с.
Вид битрейта : Переменный
Битрейт : 4405 Кбит/сек
Ширина : 1920 пикс.
Высота : 1080 пикс.
Соотношение сторон : 16:9
Режим частоты кадров : Постоянный
Частота кадров : 24,000 кадр/сек
Цветовое пространство : YUV
Подвыборка цветности : 4:2:0
Битовая глубина : 8 бит
Тип развёртки : Прогрессивная
Бит/(Пиксели*Кадры) : 0.089
Размер потока : 289 Мбайт (96%)
Библиотека кодирования : x264 core 129
Настройки программы : cabac=1 / ref=1 / deblock=1:0:0 / analyse=0x1:0x131 / me=dia / subme=2 / psy=1 / psy_rd=1.00:0.00 / mixed_ref=0 / me_range=16 / chroma_me=1 / trellis=0 / 8x8dct=0 / cqm=0 / deadzone=21,11 / fast_pskip=1 / chroma_qp_offset=0 / threads=2 / lookahead_threads=1 / sliced_threads=0 / nr=0 / decimate=1 / interlaced=0 / bluray_compat=0 / constrained_intra=0 / bframes=0 / weightp=2 / keyint=250 / keyint_min=25 / scenecut=40 / intra_refresh=0 / rc_lookahead=40 / rc=abr / mbtree=1 / bitrate=4405 / ratetol=1.0 / qcomp=0.60 / qpmin=10 / qpmax=51 / qpstep=4 / ip_ratio=1.41 / aq=1:1.00
Дата кодирования : UTC 2011-10-25 20:51:31
Дата пометки : UTC 2011-10-25 20:51:31

Аудио
Идентификатор : 2
Формат : AAC
Формат/Информация : Advanced Audio Codec
Профиль формата : LC
Идентификатор кодека : 40
Продолжительность : 9 м. 36 с.
Вид битрейта : Переменный
Битрейт : 151 Кбит/сек
Максимальный битрейт : 176,4 Кбит/сек
Каналы : 2 канала
Расположение каналов : Front: L R
Частота : 44,1 КГц
Метод сжатия : С потерями
Размер потока : 10,4 Мбайт (3%)
Дата кодирования : UTC 2011-10-25 20:51:31
Дата пометки : UTC 2011-10-25 20:51:31
Общее
Полное имя : E:\Enigma - (Music for showers № 1)\Enigma - MMX The Social Song.mp4
Формат : MPEG-4
Профиль формата : Base Media / Version 2
Идентификатор кодека : mp42
Размер файла : 192 Мбайт
Продолжительность : 4 м. 22 с.
Общий поток : 6134 Кбит/сек
Дата кодирования : UTC 2011-09-27 16:10:39
Дата пометки : UTC 2011-09-27 16:10:39
gsst : 0
gstd : 262040
gssd : B4A7DDAE5MH1351280691548109
gshh : r5---sn-4g57kuer.c.youtube.com

Видео
Идентификатор : 1
Формат : AVC
Формат/Информация : Advanced Video Codec
Профиль формата :
Параметр CABAC формата : Да
Параметр ReFrames формата : 1 кадр
Параметры GOP формата : M=1, N=45
Идентификатор кодека : avc1
Идентификатор кодека/Информация : Advanced Video Coding
Продолжительность : 4 м. 22 с.
Вид битрейта : Переменный
Битрейт : 5978 Кбит/сек
Максимальный битрейт : 12,8 Мбит/сек
Ширина : 1920 пикс.
Высота : 1080 пикс.
Соотношение сторон : 16:9
Режим частоты кадров : Постоянный
Частота кадров : 25,000 кадр/сек
Цветовое пространство : YUV
Подвыборка цветности : 4:2:0
Битовая глубина : 8 бит
Тип развёртки : Прогрессивная
Бит/(Пиксели*Кадры) : 0.115
Размер потока : 187 Мбайт (97%)
Дата пометки : UTC 2011-09-27 16:10:40

Аудио
Идентификатор : 2
Формат : AAC
Формат/Информация : Advanced Audio Codec
Профиль формата : LC
Идентификатор кодека : 40
Продолжительность : 4 м. 21 с.
Вид битрейта : Переменный
Битрейт : 152 Кбит/сек
Максимальный битрейт : 175 Кбит/сек
Каналы : 2 канала
Расположение каналов : Front: L R
Частота : 44,1 КГц
Метод сжатия : С потерями
Размер потока : 4,73 Мбайт (2%)
Заголовок : IsoMedia File Produced by Google, 5-11-2011
Дата кодирования : UTC 2011-09-27 16:10:40
Дата пометки : UTC 2011-09-27 16:10:40
Общее
Полное имя : E:\Enigma - (Music for showers № 1)\Enigma - Page of Cups.mp4
Формат : MPEG-4
Профиль формата : Base Media
Идентификатор кодека : isom
Размер файла : 264 Мбайт
Продолжительность : 7 м. 10 с.
Общий поток : 5132 Кбит/сек
Дата кодирования : UTC 2011-11-07 00:35:06
Дата пометки : UTC 2011-11-07 00:35:06
Программа кодирования : Lavf54.63.104

Видео
Идентификатор : 1
Формат : AVC
Формат/Информация : Advanced Video Codec
Профиль формата :
Параметр CABAC формата : Да
Параметр ReFrames формата : 1 кадр
Идентификатор кодека : avc1
Идентификатор кодека/Информация : Advanced Video Coding
Продолжительность : 7 м. 10 с.
Вид битрейта : Переменный
Битрейт : 4923 Кбит/сек
Ширина : 1920 пикс.
Высота : 1080 пикс.
Соотношение сторон : 16:9
Режим частоты кадров : Постоянный
Частота кадров : 29,970 кадр/сек
Цветовое пространство : YUV
Подвыборка цветности : 4:2:0
Битовая глубина : 8 бит
Тип развёртки : Прогрессивная
Бит/(Пиксели*Кадры) : 0.079
Размер потока : 256 Мбайт (97%)
Библиотека кодирования : x264 core 129
Настройки программы : cabac=1 / ref=1 / deblock=1:0:0 / analyse=0x1:0x131 / me=dia / subme=2 / psy=1 / psy_rd=1.00:0.00 / mixed_ref=0 / me_range=16 / chroma_me=1 / trellis=0 / 8x8dct=0 / cqm=0 / deadzone=21,11 / fast_pskip=1 / chroma_qp_offset=0 / threads=2 / lookahead_threads=1 / sliced_threads=0 / nr=0 / decimate=1 / interlaced=0 / bluray_compat=0 / constrained_intra=0 / bframes=0 / weightp=2 / keyint=250 / keyint_min=25 / scenecut=40 / intra_refresh=0 / rc_lookahead=40 / rc=abr / mbtree=1 / bitrate=4923 / ratetol=1.0 / qcomp=0.60 / qpmin=10 / qpmax=51 / qpstep=4 / ip_ratio=1.41 / aq=1:1.00
Дата кодирования : UTC 2011-11-07 00:35:06
Дата пометки : UTC 2011-11-07 00:35:06

Аудио
Идентификатор : 2
Формат : AAC
Формат/Информация : Advanced Audio Codec
Профиль формата : LC
Идентификатор кодека : 40
Продолжительность : 7 м. 10 с.
Вид битрейта : Переменный
Битрейт : 151 Кбит/сек
Максимальный битрейт : 176,4 Кбит/сек
Каналы : 2 канала
Расположение каналов : Front: L R
Частота : 44,1 КГц
Метод сжатия : С потерями
Размер потока : 7,76 Мбайт (3%)
Дата кодирования : UTC 2011-11-07 00:35:06
Дата пометки : UTC 2011-11-07 00:35:06
Общее
Полное имя : E:\Enigma - (Music for showers № 1)\Enigma - Principles of Lust.mp4
Формат : MPEG-4
Профиль формата : Base Media
Идентификатор кодека : isom
Размер файла : 128 Мбайт
Продолжительность : 3 м. 30 с.
Общий поток : 5102 Кбит/сек
Дата кодирования : UTC 2010-07-02 08:54:14
Дата пометки : UTC 2010-07-02 08:54:14
Программа кодирования : Lavf54.63.104

Видео
Идентификатор : 1
Формат : AVC
Формат/Информация : Advanced Video Codec
Профиль формата :
Параметр CABAC формата : Да
Параметр ReFrames формата : 1 кадр
Идентификатор кодека : avc1
Идентификатор кодека/Информация : Advanced Video Coding
Продолжительность : 3 м. 30 с.
Вид битрейта : Переменный
Битрейт : 4923 Кбит/сек
Ширина : 1920 пикс.
Высота : 1080 пикс.
Соотношение сторон : 16:9
Режим частоты кадров : Постоянный
Частота кадров : 29,970 кадр/сек
Цветовое пространство : YUV
Подвыборка цветности : 4:2:0
Битовая глубина : 8 бит
Тип развёртки : Прогрессивная
Бит/(Пиксели*Кадры) : 0.079
Размер потока : 124 Мбайт (97%)
Библиотека кодирования : x264 core 129
Настройки программы : cabac=1 / ref=1 / deblock=1:0:0 / analyse=0x1:0x131 / me=dia / subme=2 / psy=1 / psy_rd=1.00:0.00 / mixed_ref=0 / me_range=16 / chroma_me=1 / trellis=0 / 8x8dct=0 / cqm=0 / deadzone=21,11 / fast_pskip=1 / chroma_qp_offset=0 / threads=2 / lookahead_threads=1 / sliced_threads=0 / nr=0 / decimate=1 / interlaced=0 / bluray_compat=0 / constrained_intra=0 / bframes=0 / weightp=2 / keyint=250 / keyint_min=25 / scenecut=40 / intra_refresh=0 / rc_lookahead=40 / rc=abr / mbtree=1 / bitrate=4923 / ratetol=1.0 / qcomp=0.60 / qpmin=10 / qpmax=51 / qpstep=4 / ip_ratio=1.41 / aq=1:1.00
Дата кодирования : UTC 2010-07-02 08:54:14
Дата пометки : UTC 2010-07-02 08:54:14

Аудио
Идентификатор : 2
Формат : AAC
Формат/Информация : Advanced Audio Codec
Профиль формата : LC
Идентификатор кодека : 40
Продолжительность : 3 м. 30 с.
Вид битрейта : Переменный
Битрейт : 152 Кбит/сек
Максимальный битрейт : 176,4 Кбит/сек
Каналы : 2 канала
Расположение каналов : Front: L R
Частота : 44,1 КГц
Метод сжатия : С потерями
Размер потока : 3,81 Мбайт (3%)
Дата кодирования : UTC 2010-07-02 08:54:14
Дата пометки : UTC 2010-07-02 08:54:14
Общее
Полное имя : E:\Enigma - (Music for showers № 1)\Enigma - Return To Innocence.mp4
Формат : MPEG-4
Профиль формата : Base Media
Идентификатор кодека : isom
Размер файла : 161 Мбайт
Продолжительность : 4 м. 50 с.
Общий поток : 4640 Кбит/сек
Дата кодирования : UTC 2009-11-29 00:38:09
Дата пометки : UTC 2009-11-29 00:38:09
Программа кодирования : Lavf54.63.104

Видео
Идентификатор : 1
Формат : AVC
Формат/Информация : Advanced Video Codec
Профиль формата :
Параметр CABAC формата : Да
Параметр ReFrames формата : 1 кадр
Идентификатор кодека : avc1
Идентификатор кодека/Информация : Advanced Video Coding
Продолжительность : 4 м. 50 с.
Вид битрейта : Переменный
Битрейт : 4496 Кбит/сек
Ширина : 1920 пикс.
Высота : 1080 пикс.
Соотношение сторон : 16:9
Режим частоты кадров : Постоянный
Частота кадров : 25,000 кадр/сек
Цветовое пространство : YUV
Подвыборка цветности : 4:2:0
Битовая глубина : 8 бит
Тип развёртки : Прогрессивная
Бит/(Пиксели*Кадры) : 0.087
Размер потока : 155 Мбайт (97%)
Библиотека кодирования : x264 core 129
Настройки программы : cabac=1 / ref=1 / deblock=1:0:0 / analyse=0x1:0x131 / me=dia / subme=2 / psy=1 / psy_rd=1.00:0.00 / mixed_ref=0 / me_range=16 / chroma_me=1 / trellis=0 / 8x8dct=0 / cqm=0 / deadzone=21,11 / fast_pskip=1 / chroma_qp_offset=0 / threads=2 / lookahead_threads=1 / sliced_threads=0 / nr=0 / decimate=1 / interlaced=0 / bluray_compat=0 / constrained_intra=0 / bframes=0 / weightp=2 / keyint=250 / keyint_min=25 / scenecut=40 / intra_refresh=0 / rc_lookahead=40 / rc=abr / mbtree=1 / bitrate=4496 / ratetol=1.0 / qcomp=0.60 / qpmin=10 / qpmax=51 / qpstep=4 / ip_ratio=1.41 / aq=1:1.00
Дата кодирования : UTC 2009-11-29 00:38:09
Дата пометки : UTC 2009-11-29 00:38:09

Аудио
Идентификатор : 2
Формат : AAC
Формат/Информация : Advanced Audio Codec
Профиль формата : LC
Идентификатор кодека : 40
Продолжительность : 4 м. 50 с.
Вид битрейта : Переменный
Битрейт : 152 Кбит/сек
Максимальный битрейт : 176,4 Кбит/сек
Каналы : 2 канала
Расположение каналов : Front: L R
Частота : 44,1 КГц
Метод сжатия : С потерями
Размер потока : 5,26 Мбайт (3%)
Дата кодирования : UTC 2009-11-29 00:38:09
Дата пометки : UTC 2009-11-29 00:38:09
Общее
Полное имя : E:\Enigma - (Music for showers № 1)\Enigma - Sadeness.mp4
Формат : MPEG-4
Профиль формата : Base Media
Идентификатор кодека : isom
Размер файла : 136 Мбайт
Продолжительность : 4 м. 14 с.
Общий поток : 4499 Кбит/сек
Название фильма : encoded by vladi | mv-indie.blogspot.com
Дата кодирования : UTC 2009-08-25 05:39:15
Дата пометки : UTC 2009-08-25 05:39:15
Программа кодирования : Lavf54.63.104

Видео
Идентификатор : 1
Формат : AVC
Формат/Информация : Advanced Video Codec
Профиль формата :
Параметр CABAC формата : Да
Параметр ReFrames формата : 1 кадр
Идентификатор кодека : avc1
Идентификатор кодека/Информация : Advanced Video Coding
Продолжительность : 4 м. 14 с.
Вид битрейта : Переменный
Битрейт : 4496 Кбит/сек
Ширина : 1920 пикс.
Высота : 1080 пикс.
Соотношение сторон : 16:9
Режим частоты кадров : Постоянный
Частота кадров : 25,000 кадр/сек
Цветовое пространство : YUV
Подвыборка цветности : 4:2:0
Битовая глубина : 8 бит
Тип развёртки : Прогрессивная
Бит/(Пиксели*Кадры) : 0.087
Размер потока : 132 Мбайт (97%)
Библиотека кодирования : x264 core 129
Настройки программы : cabac=1 / ref=1 / deblock=1:0:0 / analyse=0x1:0x131 / me=dia / subme=2 / psy=1 / psy_rd=1.00:0.00 / mixed_ref=0 / me_range=16 / chroma_me=1 / trellis=0 / 8x8dct=0 / cqm=0 / deadzone=21,11 / fast_pskip=1 / chroma_qp_offset=0 / threads=2 / lookahead_threads=1 / sliced_threads=0 / nr=0 / decimate=1 / interlaced=0 / bluray_compat=0 / constrained_intra=0 / bframes=0 / weightp=2 / keyint=250 / keyint_min=25 / scenecut=40 / intra_refresh=0 / rc_lookahead=40 / rc=abr / mbtree=1 / bitrate=4496 / ratetol=1.0 / qcomp=0.60 / qpmin=10 / qpmax=51 / qpstep=4 / ip_ratio=1.41 / aq=1:1.00
Дата кодирования : UTC 2009-08-25 05:39:15
Дата пометки : UTC 2009-08-25 05:39:15

Аудио
Идентификатор : 2
Формат : AAC
Формат/Информация : Advanced Audio Codec
Профиль формата : LC
Идентификатор кодека : 40
Продолжительность : 4 м. 14 с.
Вид битрейта : Переменный
Битрейт : 152 Кбит/сек
Максимальный битрейт : 176,4 Кбит/сек
Каналы : 2 канала
Расположение каналов : Front: L R
Частота : 44,1 КГц
Метод сжатия : С потерями
Размер потока : 4,60 Мбайт (3%)
Дата кодирования : UTC 2009-08-25 05:39:15
Дата пометки : UTC 2009-08-25 05:39:15
Общее
Полное имя : E:\Enigma - (Music for showers № 1)\Enigma - Sensing The Spheres.mp4
Формат : MPEG-4
Профиль формата : Base Media
Идентификатор кодека : isom
Размер файла : 192 Мбайт
Продолжительность : 5 м. 45 с.
Общий поток : 4651 Кбит/сек
Дата кодирования : UTC 2011-10-12 12:28:13
Дата пометки : UTC 2011-10-12 12:28:13
Программа кодирования : Lavf54.63.104

Видео
Идентификатор : 1
Формат : AVC
Формат/Информация : Advanced Video Codec
Профиль формата :
Параметр CABAC формата : Да
Параметр ReFrames формата : 1 кадр
Идентификатор кодека : avc1
Идентификатор кодека/Информация : Advanced Video Coding
Продолжительность : 5 м. 45 с.
Вид битрейта : Переменный
Битрейт : 4405 Кбит/сек
Ширина : 1920 пикс.
Высота : 1080 пикс.
Соотношение сторон : 16:9
Режим частоты кадров : Постоянный
Частота кадров : 24,000 кадр/сек
Цветовое пространство : YUV
Подвыборка цветности : 4:2:0
Битовая глубина : 8 бит
Тип развёртки : Прогрессивная
Бит/(Пиксели*Кадры) : 0.089
Размер потока : 185 Мбайт (97%)
Библиотека кодирования : x264 core 129
Настройки программы : cabac=1 / ref=1 / deblock=1:0:0 / analyse=0x1:0x131 / me=dia / subme=2 / psy=1 / psy_rd=1.00:0.00 / mixed_ref=0 / me_range=16 / chroma_me=1 / trellis=0 / 8x8dct=0 / cqm=0 / deadzone=21,11 / fast_pskip=1 / chroma_qp_offset=0 / threads=2 / lookahead_threads=1 / sliced_threads=0 / nr=0 / decimate=1 / interlaced=0 / bluray_compat=0 / constrained_intra=0 / bframes=0 / weightp=2 / keyint=250 / keyint_min=25 / scenecut=40 / intra_refresh=0 / rc_lookahead=40 / rc=abr / mbtree=1 / bitrate=4405 / ratetol=1.0 / qcomp=0.60 / qpmin=10 / qpmax=51 / qpstep=4 / ip_ratio=1.41 / aq=1:1.00
Дата кодирования : UTC 2011-10-12 12:28:13
Дата пометки : UTC 2011-10-12 12:28:13

Аудио
Идентификатор : 2
Формат : AAC
Формат/Информация : Advanced Audio Codec
Профиль формата : LC
Идентификатор кодека : 40
Продолжительность : 5 м. 45 с.
Вид битрейта : Переменный
Битрейт : 151 Кбит/сек
Максимальный битрейт : 176,4 Кбит/сек
Каналы : 2 канала
Расположение каналов : Front: L R
Частота : 44,1 КГц
Метод сжатия : С потерями
Размер потока : 6,23 Мбайт (3%)
Дата кодирования : UTC 2011-10-12 12:28:13
Дата пометки : UTC 2011-10-12 12:28:13
Скриншоты:
Правила, инструкции, FAQ!!!
Торрент  Добавлен [20 май 2014, 12:22] Скачать торрент
Скачать торрент
[ Размер 13.16 КБ / Просмотров 89 ]

Статус
Проверен 
 
Размер  2.3 ГБ
Приватный: Нет (DHT включён)
.torrent скачан  29
Как залить торрент? | Как скачать Torrent? | Как смотреть и слушать онлайн?  
Гость
 


Вернуться в Клипы (HD-Video)

Кто сейчас на конференции

Сейчас этот форум просматривают: нет зарегистрированных пользователей и гости: 0

   Наша команда  Удалить cookies конференции • Часовой пояс: UTC + 3 часа

Пользовательское соглашение  |  Для правообладателей  | 

croncron