(EBM, Dark Electro) [LP] [24/192] Hocico ‎– Artificial Extinction - 2019, FLAC (image+.cue)


Статистика раздачи
Размер: 2.47 ГБ | Добавлен: 22 дек 2019, 10:35 | Скачали: 2
Сидеров: 2  [0 байт/сек]    Личеров: 1  [0 байт/сек]

Сообщение Гость » 22 дек 2019, 10:35

Hocico ‎– Artificial Extinction
Жанр: EBM, Dark Electro
Носитель: 2LP, 12" 45rpm
Год выпуска: 2019
Лейбл: Out Of Line ‎- OUT 1026 / 1027
Страна-производитель: Germany
Аудио кодек: FLAC
Тип рипа: image+.cue
Формат записи: 24/192
Формат раздачи: 24/192
Продолжительность: 56:59
Треклист:
A1. Dark Sunday
A2. El Ballet Mecánico
A3. Artificial Extinction
B1. Psychonaut
B2. Blindes Race
B3. Shut Me Down!
C1. Damaged
C2. Breathing Under Your Feet
C3. Cross The Line
D1. Palabras De Sangre
D2. Quiet Zone (In Dead Silence)
Источник оцифровки: автором раздачи
Код класса состояния винила: Mint
Устройство воспроизведения: Audio-Technica AT-LP120X USB
Головка звукоснимателя: AT-VM95E
Предварительный усилитель: Harman/Kardon HK980
АЦП: VIA High Definition Audio
Программа-оцифровщик: Audacity
Обработка: iZotope RX7 - De-click
foobar2000 1.4.6 / Замер динамического диапазона (DR) 1.1.1
Дата отчёта: 2019-12-21 11:01:01
--------------------------------------------------------------------------------
Анализ: Hocico / Artificial Extinction [OUT 1026 / 1027]
--------------------------------------------------------------------------------
DR Пики RMS Продолжительность трека
--------------------------------------------------------------------------------
DR12 -1.00 дБ -14.70 дБ 5:17 01-Damaged
DR11 -1.79 дБ -14.32 дБ 5:47 01-Dark Sunday
DR12 -1.10 дБ -15.68 дБ 6:29 01-Palabras De Sangre
DR10 -1.59 дБ -13.44 дБ 5:42 01-Psychonaut
DR13 -0.39 дБ -15.11 дБ 4:32 02-Blindes Race
DR10 -0.71 дБ -12.62 дБ 4:39 02-Breathing Under Your Feet
DR10 -1.45 дБ -13.92 дБ 4:19 02-El Ballet MecГЎnico
DR10 -1.15 дБ -13.38 дБ 4:34 02-Quiet Zone (In Dead Silence)
DR10 -2.20 дБ -13.79 дБ 5:06 03-Artificial Extinction
DR11 -0.57 дБ -14.21 дБ 5:04 03-Cross The Line
DR10 -1.50 дБ -14.14 дБ 5:32 03-Shut Me Down!
--------------------------------------------------------------------------------
Количество треков: 11
Реальные значения DR: DR11
Частота: 192000 Гц
Каналов: 2
Разрядность: 24
Битрейт: 6128 кбит/с
Кодек: FLAC
================================================================================
Правила, инструкции, FAQ!!!
Торрент  Добавлен [22 дек 2019, 10:35] Скачать торрент
Скачать торрент
[ Размер 13.82 КБ / Просмотров 7 ]

Статус
Проверен 
 
Размер  2.47 ГБ
Приватный: Нет (DHT включён)
.torrent скачан  2
Как залить торрент? | Как скачать Torrent? | Как смотреть и слушать онлайн?  
Гость
 


Вернуться в Электронная музыка (оцифровки)

Кто сейчас на конференции

Сейчас этот форум просматривают: нет зарегистрированных пользователей и гости: 0

   Наша команда  Удалить cookies конференции • Часовой пояс: UTC + 3 часа

Пользовательское соглашение  |  Для правообладателей  | 

croncron