Depeche Mode - 100% Video Collection (2013) HDTV 1080i


Статистика раздачи
Размер: 7.98 ГБ | Добавлен: 06 май 2013, 20:18 | Скачали: 198
Сидеров: 52  [0 байт/сек]    Личеров: 34  [0 байт/сек]

Сообщение Гость » 06 май 2013, 20:18

Оригинальное название: 100% Video Collection
Год выхода: 2013
Жанр: Synthpop
Музыканты: Depeche Mode, Дэйв Гаан, Мартин Гор, Энди Флетчер, Винс Кларк, Алан Уайлдер, Петер Гордено, Кристиан Эйнер

О фильме:
Видеоклипы Depeche Mode в программе "100%" (23.04.2013) на канале M6 Music HD... Depeche Mode - культовый британский музыкальный коллектив, образовавшийся в 1980. Эта группа создала собственный стиль в жанрах электронной и рок-музыки и является одной из наиболее успешных и долгоживущих групп мира. Depeche Mode по-прежнему выпускают альбомы, гастролируют и звучат при этом современно, несмотря на то, что группе уже 30 лет. К 2010 году было продано около 100 миллионов копий альбомов Depeche Mode. Depeche Mode оказывают значительное влияние на многих исполнителей, в основном благодаря своей технике записи и инновационному использованию семплирования. Depeche Mode были образованы в 1980 как квартет, в его состав входили Дэйв Гаан, Мартин Гор, Энди Флетчер и Винс Кларк. Винс Кларк покинул группу после выхода дебютного альбома в 1981 году. Его место занял Алан Уайлдер, который играл в группе с 1983 по 1995 год. После ухода Алана коллектив оформился как трио, и сейчас в группе выступают Гаан, Гор и Флетчер...

Канал: M6 Music HD
Продолжительность: 02:16:08
Перевод
Не требуется


Кодек: H.264
Качество: HDTV (1080i)
Видео: 1920x1080; 7 722 Kbps ; 25.000 fps
Звук:
Аудио: AC-3; 256 Kbps; 48.0 KHz; 2 ch

01. Enjoy The Silence (1990)
02. Policy Of Truth (1990)
03. Everything Counts (live,1989)
04. Stripped (1986)
05. World In My Eyes (1990)
06. Heaven (2013)
07. Martyr (2006)
08. A Pain That I'm Used To(2006)
09. Get The Balance Right! (1983)
10. In Your Room (1994)
11. I Feel You(1993)
12. Only When I Lose Myself(1998)
13. Pleasure, Little Treasure(live,1989)
14. Wrong(2009)
15. The Meaning Of Love(1982)
16. Just Can't Get Enough(1981)
17. Master And Servant(1985)
18. Shake The Disease(1985)
19. Walking In My Shoes(1993)
20. Soothe My Soul(2013)
21. I Feel Loved(2001)
22. It's No Good(1997)
23. Home(1997)
24. Dream On(2001)
25. Fragile Tension(2009)
26. Personal Jesus(1989)
27. A Question Of Time(1986)
28. People Are People(1984)
29. Barrel Of A Gun(1997)
30. Condemnation(live,1993)
31. Freelove(2002)
32. Never Let Me Down Again(1987)
33. Behind The Wheel(1987)
34. Strangelove(1987)
Complete name : Depeche Mode - 100%.ts
Format : MPEG-TS
File size : 7.98 GiB
Duration : 2h 16mn
Overall bit rate mode : Variable
Overall bit rate : 8 396 Kbps

Video
ID : 162 (0xA2)
Menu ID : 6503 (0x1967)
Format : AVC
Format/Info : Advanced Video Codec
Format profile : High@L4.0
Format settings, CABAC : Yes
Format settings, ReFrames : 4 frames
Codec ID : 27
Duration : 2h 16mn
Bit rate : 7 722 Kbps
Width : 1 920 pixels
Height : 1 080 pixels
Display aspect ratio : 16:9
Frame rate : 25.000 fps
Color space : YUV
Chroma subsampling : 4:2:0
Bit depth : 8 bits
Scan type : MBAFF
Bits/(Pixel*Frame) : 0.149
Stream size : 7.34 GiB (92%)
Encryption : Seca Mediaguard 1/2
Color primaries : BT.709
Transfer characteristics : BT.709
Matrix coefficients : BT.709

Audio
ID : 90 (0x5A)
Menu ID : 6503 (0x1967)
Format : AC-3
Format/Info : Audio Coding 3
Format profile : Dolby Digital
Mode extension : CM (complete main)
Format settings, Endianness : Big
Codec ID : 6
Duration : 2h 16mn
Bit rate mode : Constant
Bit rate : 256 Kbps
Channel(s) : 2 channels
Channel positions : Front: L R
Sampling rate : 48.0 KHz
Bit depth : 16 bits
Compression mode : Lossy
Delay relative to video : 20ms
Stream size : 249 MiB (3%)
Language : French
Encryption : Seca Mediaguard 1/2
Правила, инструкции, FAQ!!!
Торрент  Добавлен [06 май 2013, 20:18] Скачать торрент
Скачать торрент
[ Размер 40.34 КБ / Просмотров 50 ]

Статус
Проверен 
 
Размер  7.98 ГБ
Приватный: Нет (DHT включён)
.torrent скачан  198
Как залить торрент? | Как скачать Torrent? | Как смотреть и слушать онлайн?  
Гость
 


Вернуться в Клипы (HD-Video)

Кто сейчас на конференции

Сейчас этот форум просматривают: нет зарегистрированных пользователей и гости: 0

   Наша команда  Удалить cookies конференции • Часовой пояс: UTC + 3 часа

Пользовательское соглашение  |  Для правообладателей  | 

cron