[TR24][OF] Coheed and Cambria - The Color Before The Sun (Deconstructed Deluxe) - 2016 (Alternative/ Progressive Rock)


Статистика раздачи
Размер: 1.71 ГБ | Добавлен: 10 май 2020, 19:38 | Скачали: 0
Сидеров: 0  [0 байт/сек]    Личеров: 0  [0 байт/сек]

Сообщение Гость » 10 май 2020, 19:38

Coheed and Cambria / The Color Before The Sun (Deconstructed Deluxe)
Формат записи/Источник записи: [TR24][OF]
Год издания/переиздания диска: 2016
Жанр: Alternative/ Progressive Rock
Издатель (лейбл): 300 Entertainment
Продолжительность: 02:28:00
Наличие сканов в содержимом раздачи: Только обложка альбома
Треклист:
01. Island
02. Eraser
03. Colors
04. Here To Mars
05. Ghost
06. Atlas
07. Young Love
08. You Got Spirit, Kid
09. The Audience
10. Peace To The Mountain
11. Island (Big Beige / 4th St Demos)
12. Eraser (Big Beige / 4th St Demos)
13. Colors (Big Beige / 4th St Demos)
14. Here To Mars (Big Beige / 4th St Demos)
15. Ghost (Big Beige / 4th St Demos)
16. Atlas (Big Beige / 4th St Demos)
17. Young Love (Big Beige / 4th St Demos)
18. You Got Spirit, Kid (Big Beige / 4th St Demos)
19. The Audience (Big Beige / 4th St Demos)
20. Peace To The Mountain (Big Beige / 4th St Demos)
21. Bridge and Tunnel (Big Beige / 4th St Demos)
22. Fangs of the Fox (Big Beige / 4th St Demos)
23. Island (Live Soundboard Bootleg, Jannus Live, St Petersburg, FL 03/12/16)
24. In Keeping Secrets of Silent Earth3 (Live Soundboard Bootleg, Revention Center, Houston, TX 03/17/16)
25. Blood Red Summer (Live Soundboard Bootleg, Tabernacle, Atlanta, GA 03/14/16)
26. Devil in Jersey City (Live Soundboard Bootleg, Marquee Theatre, Tempe, AZ 03/21/16)
27. Everything Evil (Live Soundboard Bootleg, Jannus Live, St Petersburg, FL 03/12/16)
28. Key Entity Extraction V Sentry the Defiant (Live Soundboard Bootleg, Marquee Theatre, Tempe, AZ 03/21/16)
29. Here to Mars (Live Soundboard Bootleg, Jannus Live, St Petersburg, FL 03/12/16)
30. The Audience (Live Soundboard Bootleg, Revention Center, Houston, TX 03/17/16)
Контейнер: FLAC (*.flac)
Тип рипа: tracks
Разрядность: 24/44,1
Формат: WAV (flac.ape.wv)
Количество каналов: 2.0
Код: Выделить всё
foobar2000 1.5.3 / Замер динамического диапазона (DR) 1.1.1
Дата отчёта:  2020-05-10 14:06:31
--------------------------------------------------------------------------------
Анализ:   Coheed and Cambria / The Color Before The Sun (Deconstructed Deluxe)
--------------------------------------------------------------------------------
DR         Пики         RMS           Продолжительность трека
--------------------------------------------------------------------------------
DR6        0.00 дБ    -7.33 дБ      5:02 01-Island
DR6        0.00 дБ    -7.78 дБ      3:53 02-Eraser
DR6       -0.31 дБ    -9.16 дБ      4:41 03-Colors
DR6       -0.27 дБ    -7.69 дБ      4:01 04-Here To Mars
DR10      -1.04 дБ   -13.59 дБ      2:45 05-Ghost
DR6       -0.05 дБ    -7.80 дБ      6:03 06-Atlas
DR7       -0.42 дБ    -8.87 дБ      3:51 07-Young Love
DR6       -0.05 дБ    -8.15 дБ      4:11 08-You Got Spirit, Kid
DR6        0.00 дБ    -8.25 дБ      6:11 09-The Audience
DR8       -0.74 дБ   -11.61 дБ      6:33 10-Peace To The Mountain
DR9       -1.71 дБ   -12.26 дБ      4:27 11-Island (Big Beige / 4th St Demos)
DR6       -1.35 дБ    -8.65 дБ      3:40 12-Eraser (Big Beige / 4th St Demos)
DR6       -1.54 дБ    -9.97 дБ      4:22 13-Colors (Big Beige / 4th St Demos)
DR5       -1.64 дБ    -8.71 дБ      4:21 14-Here To Mars (Big Beige / 4th St Demos)
DR11      -1.64 дБ   -14.16 дБ      2:29 15-Ghost (Big Beige / 4th St Demos)
DR6       -1.54 дБ    -8.86 дБ      6:51 16-Atlas (Big Beige / 4th St Demos)
DR6       -1.95 дБ    -9.88 дБ      3:34 17-Young Love (Big Beige / 4th St Demos)
DR6       -1.54 дБ    -9.21 дБ      3:14 18-You Got Spirit, Kid (Big Beige / 4th St Demos)
DR5       -1.58 дБ    -8.99 дБ      5:59 19-The Audience (Big Beige / 4th St Demos)
DR6       -1.58 дБ   -10.01 дБ      5:43 20-Peace To The Mountain (Big Beige / 4th St Demos)
DR5       -0.83 дБ    -7.01 дБ      4:37 21-Bridge and Tunnel (Big Beige / 4th St Demos)
DR9       -0.85 дБ   -11.78 дБ      6:20 22-Fangs of the Fox (Big Beige / 4th St Demos)
DR5       -0.47 дБ    -6.55 дБ      4:44 23-Island (Live Soundboard Bootleg, Jannus Live, St Petersburg, FL 03/12/16)
DR5       -0.85 дБ    -7.87 дБ     10:03 24-In Keeping Secrets of Silent Earth3 (Live Soundboard Bootleg, Revention Center, Houston, TX 03/17/16)
DR5       -0.85 дБ    -6.66 дБ      4:29 25-Blood Red Summer (Live Soundboard Bootleg, Tabernacle, Atlanta, GA 03/14/16)
DR5       -0.86 дБ    -7.34 дБ      4:59 26-Devil in Jersey City (Live Soundboard Bootleg, Marquee Theatre, Tempe, AZ 03/21/16)
DR6       -0.71 дБ    -7.90 дБ      6:13 27-Everything Evil (Live Soundboard Bootleg, Jannus Live, St Petersburg, FL 03/12/16)
DR5       -0.83 дБ    -7.48 дБ      5:12 28-Key Entity Extraction V Sentry the Defiant (Live Soundboard Bootleg, Marquee Theatre, Tempe, AZ 03/21/16)
DR5       -0.70 дБ    -7.28 дБ      4:12 29-Here to Mars (Live Soundboard Bootleg, Jannus Live, St Petersburg, FL 03/12/16)
DR6       -0.82 дБ    -8.05 дБ      6:08 30-The Audience (Live Soundboard Bootleg, Revention Center, Houston, TX 03/17/16)
--------------------------------------------------------------------------------
Количество треков: 30
Реальные значения DR: DR6
Частота:   44100 Гц
Каналов:   2
Разрядность:   24
Битрейт:   1626 кбит/с
Кодек:   FLAC
================================================================================
Источник (релизер): HDtracks
Правила, инструкции, FAQ!!!
Торрент  Добавлен [10 май 2020, 19:38] Скачать торрент
Скачать торрент
[ Размер 37.16 КБ / Просмотров 0 ]

Статус
Проверен 
 
Размер  1.71 ГБ
Приватный: Нет (DHT включён)
.torrent скачан  0
Как залить торрент? | Как скачать Torrent? | Как смотреть и слушать онлайн?  
Гость
 


Вернуться в Hi-Res stereo (рок)

Кто сейчас на конференции

Сейчас этот форум просматривают: нет зарегистрированных пользователей и гости: 0

   Наша команда  Удалить cookies конференции • Часовой пояс: UTC + 3 часа

Пользовательское соглашение  |  Для правообладателей  | 

cron