Белые волки / Weisse Wоlfe (1969) BDRip [H.264/720р-LQ]


Статистика раздачи
Размер: 2.19 ГБ | Добавлен: 02 сен 2017, 00:35 | Скачали: 2
Сидеров: 5  [0 байт/сек]    Личеров: 1  [0 байт/сек]

Сообщение Гость » 02 сен 2017, 00:35

Белые волки / Weisse Wоlfe (1969) BDRip [H.264/720р-LQ]

Производство: Германия (ГДР), Югославия / Bosna Film, Knstlerische Arbeitsgruppe ''Roter Kreis'', VEB DEFA-Studio fr Spielfilme
Жанр: Драма, Вестерн

Режиссер: Конрад Петцольд, Бошко Бошкович
Актеры: Гойко Митич, Хорст Шульце, Барбара Брыльска, Хольгер Малих, Слободан Димитриевич, Слободан Велимирович, Хельмут Шрайбер, Фред Дельмаре, Фред Людвиг, Рольф Хоппе

Описание:
Вождь племени дакота Зоркий Сокол, его жена Вороново Крыло и два воина — единственные оставшиеся в живых из всего племени. Они укрываются в горах Блэк-Хиллс. Они хотят присоединиться к группе племен шайеннов, которую возглавляет вождь Маленький Волк.
По пути к шайеннам Вороново Крыло коварно убивают белые бандиты. Зоркий Сокол клянется отомстить и отправляется в Тэнглвуд, где, как он подозревает, находится убийца его жены, бандит Башан, прислужник горнопромышленника Харрингтона.
Он встречается с честным шерифом Паттерсоном, который готов ему помочь. Вместе они пытаются изобличить Башана и доказать городу, что именно Башан — виновник многочисленных преступлений, происходящих в Тэнглвуде. Однако жители города давно уже сдались на милость горнопромышленной компании…

http://www.imdb.com/title/tt0063798/?ref_=plg_rt_1
Возраст: 12+ (зрителям, достигшим 12 лет)

Релиз от: Охрана (NNMCLUB)
Продолжительность: 01:37:48
Качество видео: BDRip
Перевод: Дублированный (киностудия "Союзмультфильм")
Субтитры: Отсутствуют

Видео: AVC/H.264, 1280x544, ~2750 Kbps
Аудио 1: Русский, AC3, 2 ch, 256 Kbps, 48.0 kHz
Аудио 2: Немецкий, AC3, 2 ch, 192 Kbps, 48.0 kHz
Код: Выделить всё
General
Unique ID                                : 242637695379894201529633005175197461293 (0xB68A52004A3BD191A567286C87E4EB2D)
Complete name                            : F:\Downloads\Белые волки. 1969. NNMCLUB.mkv
Format                                   : Matroska
Format version                           : Version 4 / Version 2
File size                                : 2.19 GiB
Duration                                 : 1h 37mn
Overall bit rate                         : 3 199 Kbps
Encoded date                             : UTC 2017-08-24 04:07:02
Writing application                      : mkvmerge v7.0.0 ('Where We Going') 32bit built on Jun  9 2014 15:08:34
Writing library                          : libebml v1.3.0 + libmatroska v1.4.1
DURATION                                 : 01:37:41.376000000
NUMBER_OF_FRAMES                         : 183168
NUMBER_OF_BYTES                          : 140673024
_STATISTICS_WRITING_APP                  : mkvmerge v7.0.0 ('Where We Going') 32bit built on Jun  9 2014 15:08:34
_STATISTICS_WRITING_DATE_UTC             : 2017-08-24 04:07:02
_STATISTICS_TAGS                         : BPS DURATION NUMBER_OF_FRAMES NUMBER_OF_BYTES

Video
ID                                       : 1
Format                                   : AVC
Format/Info                              : Advanced Video Codec
Format profile                           :
Format settings, CABAC                   : Yes
Format settings, ReFrames                : 9 frames
Codec ID                                 : V_MPEG4/ISO/AVC
Duration                                 : 1h 37mn
Bit rate                                 : 2 750 Kbps
Width                                    : 1 280 pixels
Height                                   : 544 pixels
Display aspect ratio                     : 2.35:1
Frame rate mode                          : Constant
Frame rate                               : 25.000 fps
Color space                              : YUV
Chroma subsampling                       : 4:2:0
Bit depth                                : 8 bits
Scan type                                : Progressive
Bits/(Pixel*Frame)                       : 0.158
Stream size                              : 1.84 GiB (84%)
Title                                    : Weisse Wlfe
Writing library                          : x264 core 125 r2208 d9d2288
Encoding settings                        : cabac=1 / ref=9 / deblock=1:-1:-1 / analyse=0x3:0x133 / me=umh / subme=10 / psy=1 / psy_rd=1.00:0.10 / mixed_ref=1 / me_range=32 / chroma_me=1 / trellis=2 / 8x8dct=1 / cqm=0 / deadzone=21,11 / fast_pskip=0 / chroma_qp_offset=-3 / threads=6 / lookahead_threads=1 / sliced_threads=0 / nr=0 / decimate=0 / interlaced=0 / bluray_compat=0 / constrained_intra=0 / bframes=8 / b_pyramid=2 / b_adapt=2 / b_bias=0 / direct=3 / weightb=1 / open_gop=0 / weightp=2 / keyint=250 / keyint_min=25 / scenecut=40 / intra_refresh=0 / rc_lookahead=60 / rc=2pass / mbtree=1 / bitrate=2750 / ratetol=1.0 / qcomp=0.60 / qpmin=0 / qpmax=69 / qpstep=4 / cplxblur=20.0 / qblur=0.5 / ip_ratio=1.40 / aq=1:1.00
Language                                 : German
Default                                  : Yes
Forced                                   : No

Audio #1
ID                                       : 2
Format                                   : AC-3
Format/Info                              : Audio Coding 3
Mode extension                           : CM (complete main)
Format settings, Endianness              : Big
Codec ID                                 : A_AC3
Duration                                 : 1h 37mn
Bit rate mode                            : Constant
Bit rate                                 : 256 Kbps
Channel(s)                               : 2 channels
Channel positions                        : Front: L R
Sampling rate                            : 48.0 KHz
Bit depth                                : 16 bits
Compression mode                         : Lossy
Stream size                              : 179 MiB (8%)
Title                                    : Дубляж
Language                                 : Russian
Default                                  : Yes
Forced                                   : No

Audio #2
ID                                       : 3
Format                                   : AC-3
Format/Info                              : Audio Coding 3
Mode extension                           : CM (complete main)
Format settings, Endianness              : Big
Codec ID                                 : A_AC3
Duration                                 : 1h 37mn
Bit rate mode                            : Constant
Bit rate                                 : 192 Kbps
Channel(s)                               : 2 channels
Channel positions                        : Front: L R
Sampling rate                            : 48.0 KHz
Bit depth                                : 16 bits
Compression mode                         : Lossy
Stream size                              : 134 MiB (6%)
Title                                    : Оригинал
Language                                 : German
Default                                  : No
Forced                                   : No
Полная версия фильма, имеются непереведённые места 6 минут

Скриншоты:



Время раздачи: с 13:00 до 01:00 МСК, выходные круглосуточно (до появления первых 3-5 скачавших)
Правила, инструкции, FAQ!!!
Торрент  Добавлен [02 сен 2017, 00:35] Скачать торрент
Скачать торрент
[ Размер 11.73 КБ / Просмотров 37 ]

Статус
Проверен 
 
Размер  2.19 ГБ
Приватный: Нет (DHT включён)
.torrent скачан  2
Как залить торрент? | Как скачать Torrent? | Как смотреть и слушать онлайн?  
Гость
 


Вернуться в Вестерн

Кто сейчас на конференции

Сейчас этот форум просматривают: нет зарегистрированных пользователей и гости: 0

   Наша команда  Удалить cookies конференции • Часовой пояс: UTC + 3 часа

Пользовательское соглашение  |  Для правообладателей  | 

cron