Азбука-малышка [2006, Обучение алфавиту, DVDRip, RUS] (Видеоурок)


Статистика раздачи
Размер: 2.18 ГБ | Добавлен: 28 янв 2015, 00:14 | Скачали: 9
Сидеров: 159  [0 байт/сек]    Личеров: 21  [0 байт/сек]

Сообщение Гость » 28 янв 2015, 00:14

Азбука-малышка

Страна: Украина
Тип раздаваемого материала: Видеоурок
Продолжительность: 01:15:03 + 01:23:19
Год выпуска: 2006

Язык: Русский
Перевод: Не требуется

Описание: Ваш малыш готовиться идти в первый класс? Мы вам предлагаем сделать это раньше других и отправиться на занятия в лесную школу Тетушки Совы. Именно сейчас они начинают изучение алфавита. Вашему малышу понравиться заниматься с лесными зверями. Урок у Совы проходит в форме игры и о каждой букве Тетушка расскажет свою историю, а также у мудрой учительницы есть много стихотворений связанных с буквами, которые ваши малыши легко запомнят.

Качество: DVDRip
Формат: MP4
Видео кодек: H.264
Аудио кодек: AAC
Видео: MPEG4 H.264 NTSC 640x480 4:3 VBR ~1846 kbps 25fps
Аудио: AAC CBR 128 kbps 48kHz 2 ch
General
Complete name : F:\ABC-Baby\ABC-Baby I.mp4
Format : MPEG-4
Format profile : Base Media / Version 2
Codec ID : mp42
File size : 1.12 GiB
Duration : 1h 15mn
Overall bit rate : 2 142 Kbps
Encoded date : UTC 2013-11-28 17:24:36
Tagged date : UTC 2013-11-28 17:24:36

Video
ID : 2
Format : AVC
Format/Info : Advanced Video Codec
Format profile : Baseline@L3.1
Format settings, CABAC : No
Format settings, ReFrames : 2 frames
Codec ID : avc1
Codec ID/Info : Advanced Video Coding
Duration : 1h 15mn
Bit rate : 2 011 Kbps
Width : 640 pixels
Height : 480 pixels
Display aspect ratio : 4:3
Frame rate mode : Constant
Frame rate : 25.000 fps
Standard : NTSC
Color space : YUV
Chroma subsampling : 4:2:0
Bit depth : 8 bits
Scan type : Progressive
Bits/(Pixel*Frame) : 0.262
Stream size : 1.05 GiB (94%)
Language : English
Encoded date : UTC 2013-11-28 17:24:36
Tagged date : UTC 2013-11-28 17:24:36

Audio
ID : 1
Format : AAC
Format/Info : Advanced Audio Codec
Format profile : LC
Codec ID : 40
Duration : 1h 15mn
Bit rate mode : Constant
Bit rate : 128 Kbps
Channel(s) : channel0
Original Channel count : 2 channels
Channel positions : Front: L R
Sampling rate : 48.0 KHz
Compression mode : Lossy
Stream size : 68.7 MiB (6%)
Language : English
Encoded date : UTC 2013-11-28 17:24:36
Tagged date : UTC 2013-11-28 17:24:36
General
Complete name : F:\ABC-Baby\ABC-Baby II.mp4
Format : MPEG-4
Format profile : Base Media / Version 2
Codec ID : mp42
File size : 1.05 GiB
Duration : 1h 23mn
Overall bit rate : 1 812 Kbps
Encoded date : UTC 2013-11-28 18:22:41
Tagged date : UTC 2013-11-28 18:22:41

Video
ID : 2
Format : AVC
Format/Info : Advanced Video Codec
Format profile : Baseline@L3.1
Format settings, CABAC : No
Format settings, ReFrames : 2 frames
Codec ID : avc1
Codec ID/Info : Advanced Video Coding
Duration : 1h 23mn
Bit rate : 1 681 Kbps
Width : 640 pixels
Height : 480 pixels
Display aspect ratio : 4:3
Frame rate mode : Constant
Frame rate : 25.000 fps
Standard : NTSC
Color space : YUV
Chroma subsampling : 4:2:0
Bit depth : 8 bits
Scan type : Progressive
Bits/(Pixel*Frame) : 0.219
Stream size : 1 002 MiB (93%)
Language : English
Encoded date : UTC 2013-11-28 18:22:41
Tagged date : UTC 2013-11-28 18:22:41

Audio
ID : 1
Format : AAC
Format/Info : Advanced Audio Codec
Format profile : LC
Codec ID : 40
Duration : 1h 23mn
Bit rate mode : Constant
Bit rate : 128 Kbps
Channel(s) : channel0
Original Channel count : 2 channels
Channel positions : Front: L R
Sampling rate : 48.0 KHz
Compression mode : Lossy
Stream size : 76.3 MiB (7%)
Language : English
Encoded date : UTC 2013-11-28 18:22:41
Tagged date : UTC 2013-11-28 18:22:41
Правила, инструкции, FAQ!!!
Торрент  Добавлен [28 янв 2015, 00:14] Скачать торрент
Скачать торрент
[ Размер 11.44 КБ / Просмотров 78 ]

Статус
Проверен 
 
Размер  2.18 ГБ
Приватный: Нет (DHT включён)
.torrent скачан  9
Как залить торрент? | Как скачать Torrent? | Как смотреть и слушать онлайн?  
Гость
 


Вернуться в Обучающие издания для детей

Кто сейчас на конференции

Сейчас этот форум просматривают: нет зарегистрированных пользователей и гости: 0

   Наша команда  Удалить cookies конференции • Часовой пояс: UTC + 3 часа

Пользовательское соглашение  |  Для правообладателей  | 

cron