Апачи / Apachen (1973) BDRip | D


Статистика раздачи
Размер: 1.36 ГБ | Добавлен: 22 дек 2015, 20:17 | Скачали: 112
Сидеров: 100  [0 байт/сек]    Личеров: 24  [0 байт/сек]

Сообщение Гость » 22 дек 2015, 20:17

Название: Апачи
Оригинальное название: Apachen
Год выхода: 1973
Жанр: Вестерн, приключения
Режиссер: Готтфрид Кольдиц
В ролях: Гойко Митич, Джерри Фолфф, Рольф Хоппе, Леон Нимчик, Фред Людвиг, Хартмут Бир, Милан Бели, Фред Дельмаре, Эльза Грубе-Дайстер, Томас Вайсгербер

О фильме:
Действие фильма происходит в пограничной области между США и Мексикой в 1848 году, когда Мексике пришлось уступить Америке территорию нынешних штатов Аризона, Нью-Мексико, Юта и Колорадо. Апачи племени мимбреньо в «Новой Испании» заключают с мексиканской горнопромышленной компанией договор, позволяющий мексиканцам производить разведочные работы. Однако залежи благородных металлов привлекают сюда и американского геолога Джонсона. Он зарится на эти земли и расстреливает в селении Санта-Рита индейцев из армейской пушки. Кроме того, он получает огромную премию за их скальпы. Лишь немногие из индейцев остаются в живых и скрываются, в их числе вождь Ульзана. Законы племени требуют покарать убийцу. Смогут ли они отомстить?



Выпущено: Bucaresti Film, Киностудия Дефа, Мосфильм, Германия (ГДР), Румыния, СССР
Продолжительность: 01:29:46
Перевод: Дублированный (Союзмультфильм)
Оригинальная аудио-дорожка: Нет


Кодек: XviD
Формат: AVI
Качество: BDRip [Исходник: Blu-ray [Custom] 1080i AVC DD2.0 от HDClub]
Видео: XviD, 720x304 (2.35:1), 1974 Кбит/с, 25 кадр/с
Аудио: Русский, Dolby AC3, 48000 Гц, 192 Кбит/с, 2 канала (Стерео) - DUB [Союзмультфильм]
Субтитры: Нет



General
Complete name : Apachen.1973.BDRip.avi
Format : AVI
Format/Info : Audio Video Interleave
File size : 1.36 GiB
Duration : 1h 29mn
Overall bit rate : 2 174 Kbps
Movie name : Апачи / Apachen (1973) BDRip
Writing application : VirtualDubMod 1.5.10.3 | http://www.virtualdub-fr.org || (build 2550/release)
Writing library : VirtualDubMod build 2550/release
Copyright : rip by ivandubskoj

Video
ID : 0
Format : MPEG-4 Visual
Format profile : Advanced Simple@L5
Format settings, BVOP : 1
Format settings, QPel : No
Format settings, GMC : No warppoints
Format settings, Matrix : Custom
Codec ID : XVID
Codec ID/Hint : XviD
Duration : 1h 29mn
Bit rate : 1 974 Kbps
Width : 720 pixels
Height : 304 pixels
Display aspect ratio : 2.35:1
Frame rate : 25.000 fps
Color space : YUV
Chroma subsampling : 4:2:0
Bit depth : 8 bits
Scan type : Progressive
Compression mode : Lossy
Bits/(Pixel*Frame) : 0.361
Stream size : 1.24 GiB (91%)
Writing library : XviD 73

Audio
ID : 1
Format : AC-3
Format/Info : Audio Coding 3
Mode extension : CM (complete main)
Codec ID : 2000
Duration : 1h 29mn
Bit rate mode : Constant
Bit rate : 192 Kbps
Channel(s) : 2 channels
Channel positions : Front: L R
Sampling rate : 48.0 KHz
Bit depth : 16 bits
Compression mode : Lossy
Stream size : 123 MiB (9%)
Alignment : Split accross interleaves
Interleave, duration : 64 ms (1.60 video frames)
Interleave, preload duration : 500 ms
Title : Russian, DUB [Союзмультфильм]


Автор рипа - ivandubskoj
Правила, инструкции, FAQ!!!
Торрент  Добавлен [22 дек 2015, 20:17] Скачать торрент
Скачать торрент
[ Размер 14.38 КБ / Просмотров 37 ]

Статус
Проверен 
 
Размер  1.36 ГБ
Приватный: Нет (DHT включён)
.torrent скачан  112
Как залить торрент? | Как скачать Torrent? | Как смотреть и слушать онлайн?  
Гость
 


Вернуться в Вестерн

Кто сейчас на конференции

Сейчас этот форум просматривают: нет зарегистрированных пользователей и гости: 0

   Наша команда  Удалить cookies конференции • Часовой пояс: UTC + 3 часа

Пользовательское соглашение  |  Для правообладателей  | 

cron