Anthem - Gypsy Ways + Hunting Time (30th Anniversary Live) [2019, Heavy Metal, Blu-ray, 1080p]


Статистика раздачи
Размер: 28.33 ГБ | Добавлен: 12 янв 2020, 20:22 | Скачали: 0
Сидеров: 13  [0 байт/сек]    Личеров: 4  [0 байт/сек]

Сообщение Гость » 12 янв 2020, 20:22

Gypsy Ways + Hunting Time



Жанр: Heavy Metal
Продолжительность: 01:44:59
Год выпуска: 18 Dec 2019
Треклист:
Gypsy Ways 30th Anniversary Live 2018.7.7 (Sat) Club Citta’
1 Gypsy Ways (Win, Lose Or Draw)
2 Love In Vain
3 Bad Habits Die Hard
4 Legal Killing
5 Cryin' Heart
6 Silent Child
7 Midnight Sun
8 Shout It Out!
9 Final Risk
10 Night Stalker
Hunting Time 30th Anniversary Live 2019.8.3 (Sat) Mynavi Blitz Akasaka
11 The Juggler
12 Hunting Time
13 Evil Touch
14 Tears For The Lovers
15 Sleepless Night
16 Jail Break (Goin' For Broke)
17 Let Your Heart Beat
18 Bottle Bottom
19 Are You Ready?
Качество: Blu-ray
Разрешение видео/развертка: 1080p
Контейнер: BDMV
Видео кодек: MPEG-4 AVC Video
Аудио кодек: PCM
Видео: MPEG-4 AVC Video / 34998 kbps / 1080p / 23,976 fps / 16:9 / High Profile 4.1
Аудио: LPCM Audio / Japanese / 2.0 / 48 kHz / 1536 kbps / 16-bit
Код: Выделить всё
Disc Title:     Anthem - Gypsy Ways + Hunting Time
Disc Size:      30 422 659 216 bytes
Protection:     AACS
BD-Java:        No
BDInfo:         0.5.8
Notes:
BDINFO HOME:
  Cinema Squid
    [url=http://www.cinemasquid.com/blu-ray/tools/bdinfo]http://www.cinemasquid.com/blu-ray/tools/bdinfo[/url]
INCLUDES FORUMS REPORT FOR:
  AVS Forum Blu-ray Audio and Video Specifications Thread
    [url=http://www.avsforum.com/avs-vb/showthread.php?t=1155731]http://www.avsforum.com/avs-vb/showthread.php?t=1155731[/url]
********************
PLAYLIST: 00001.MPLS
********************
<--- BEGIN FORUMS PASTE --->
Код:
Код: Выделить всё
Total   Video
Title                                                           Codec   Length  Movie Size      Disc Size       Bitrate Bitrate Main Audio Track                          Secondary Audio Track
-----                                                           ------  ------- --------------  --------------  ------- ------- ------------------                        ---------------------
00001.MPLS                                                      AVC     0:53:59 15 564 115 968  30 422 659 216  38,44   35,00   LPCM 2.0 1536Kbps (48kHz/16-bit)

Код:
Код: Выделить всё
DISC INFO:
Disc Title:     Anthem - Gypsy Ways + Hunting Time
Disc Size:      30 422 659 216 bytes
Protection:     AACS
BD-Java:        No
BDInfo:         0.5.8
PLAYLIST REPORT:
Name:                   00001.MPLS
Length:                 0:53:59.486 (h:m:s.ms)
Size:                   15 564 115 968 bytes
Total Bitrate:          38,44 Mbps
VIDEO:
Codec                   Bitrate             Description
-----                   -------             -----------
MPEG-4 AVC Video        34998 kbps          1080p / 23,976 fps / 16:9 / High Profile 4.1
AUDIO:
Codec                           Language        Bitrate         Description
-----                           --------        -------         -----------
LPCM Audio                      Japanese        1536 kbps       2.0 / 48 kHz / 1536 kbps / 16-bit
FILES:
Name            Time In         Length          Size            Total Bitrate
----            -------         ------          ----            -------------
00001.M2TS      0:00:00.000     0:53:59.486     15 564 115 968  38 436
CHAPTERS:
Number          Time In         Length          Avg Video Rate  Max 1-Sec Rate  Max 1-Sec Time  Max 5-Sec Rate  Max 5-Sec Time  Max 10Sec Rate  Max 10Sec Time  Avg Frame Size  Max Frame Size  Max Frame Time
------          -------         ------          --------------  --------------  --------------  --------------  --------------  --------------  --------------  --------------  --------------  --------------
1               0:00:00.000     0:05:47.346     35 126 kbps     48 921 kbps     00:05:45.136    40 142 kbps     00:05:41.215    37 822 kbps     00:04:02.617    183 107 bytes   618 708 bytes   00:05:45.970
2               0:05:47.346     0:08:24.503     36 096 kbps     49 914 kbps     00:10:22.121    40 165 kbps     00:10:18.117    38 790 kbps     00:10:13.112    188 188 bytes   532 416 bytes   00:10:22.747
3               0:14:11.850     0:04:45.285     34 263 kbps     42 527 kbps     00:18:52.297    38 304 kbps     00:14:52.600    37 696 kbps     00:15:49.406    178 633 bytes   541 283 bytes   00:14:20.568
4               0:18:57.136     0:06:42.401     35 229 kbps     48 320 kbps     00:23:26.029    38 437 kbps     00:23:22.025    38 033 kbps     00:23:16.978    183 670 bytes   526 352 bytes   00:20:54.878
5               0:25:39.537     0:05:19.319     35 445 kbps     51 249 kbps     00:30:55.395    39 195 kbps     00:25:39.704    38 282 kbps     00:27:51.211    184 796 bytes   623 336 bytes   00:25:45.877
6               0:30:58.857     0:04:32.271     34 335 kbps     45 005 kbps     00:34:22.518    38 751 kbps     00:34:18.514    37 562 kbps     00:34:13.509    179 007 bytes   493 033 bytes   00:32:40.708
7               0:35:31.129     0:04:53.292     34 198 kbps     46 450 kbps     00:37:11.020    38 171 kbps     00:38:03.698    37 895 kbps     00:36:46.954    178 295 bytes   635 851 bytes   00:37:11.896
8               0:40:24.421     0:04:24.264     35 645 kbps     45 046 kbps     00:41:23.898    39 213 kbps     00:41:19.894    38 076 kbps     00:44:30.292    185 839 bytes   541 154 bytes   00:44:40.010
9               0:44:48.685     0:04:00.240     34 746 kbps     51 388 kbps     00:48:47.215    38 616 kbps     00:48:39.124    37 744 kbps     00:46:54.311    181 151 bytes   605 347 bytes   00:48:43.879
10              0:48:48.926     0:05:10.560     33 971 kbps     46 043 kbps     00:48:52.262    38 830 kbps     00:53:40.842    37 131 kbps     00:51:14.529    177 131 bytes   459 196 bytes   00:48:52.888
STREAM DIAGNOSTICS:
File            PID             Type            Codec           Language                Seconds                 Bitrate                 Bytes           Packets
----            ---             ----            -----           --------                --------------          --------------          -------------   -----
00001.M2TS      4113 (0x1011)   0x1B            AVC                                     3239,319                35 000                  14 172 092 246  77 067 164
00001.M2TS      4352 (0x1100)   0x80            LPCM            jpn (Japanese)          3239,319                1 542                   624 573 672     3 887 388

Код: Выделить всё
<---- END FORUMS PASTE ---->
QUICK SUMMARY:
Disc Title: Anthem - Gypsy Ways + Hunting Time
Disc Size: 30 422 659 216 bytes
Protection: AACS
BD-Java: No
Playlist: 00001.MPLS
Size: 15 564 115 968 bytes
Length: 0:53:59.486
Total Bitrate: 38,44 Mbps
Video: MPEG-4 AVC Video / 34998 kbps / 1080p / 23,976 fps / 16:9 / High Profile 4.1
Audio: Japanese / LPCM Audio / 2.0 / 48 kHz / 1536 kbps / 16-bit
********************
PLAYLIST: 00002.MPLS
********************
<--- BEGIN FORUMS PASTE --->
Код:
Код: Выделить всё
Total   Video
Title                                                           Codec   Length  Movie Size      Disc Size       Bitrate Bitrate Main Audio Track                          Secondary Audio Track
-----                                                           ------  ------- --------------  --------------  ------- ------- ------------------                        ---------------------
00002.MPLS                                                      AVC     0:51:00 14 703 710 208  30 422 659 216  38,44   35,00   LPCM 2.0 1536Kbps (48kHz/16-bit)

Код:
Код: Выделить всё
DISC INFO:
Disc Title:     Anthem - Gypsy Ways + Hunting Time
Disc Size:      30 422 659 216 bytes
Protection:     AACS
BD-Java:        No
BDInfo:         0.5.8
PLAYLIST REPORT:
Name:                   00002.MPLS
Length:                 0:51:00.432 (h:m:s.ms)
Size:                   14 703 710 208 bytes
Total Bitrate:          38,44 Mbps
VIDEO:
Codec                   Bitrate             Description
-----                   -------             -----------
MPEG-4 AVC Video        34998 kbps          1080p / 23,976 fps / 16:9 / High Profile 4.1
AUDIO:
Codec                           Language        Bitrate         Description
-----                           --------        -------         -----------
LPCM Audio                      Japanese        1536 kbps       2.0 / 48 kHz / 1536 kbps / 16-bit
FILES:
Name            Time In         Length          Size            Total Bitrate
----            -------         ------          ----            -------------
00002.M2TS      0:00:00.000     0:51:00.432     14 703 710 208  38 436
CHAPTERS:
Number          Time In         Length          Avg Video Rate  Max 1-Sec Rate  Max 1-Sec Time  Max 5-Sec Rate  Max 5-Sec Time  Max 10Sec Rate  Max 10Sec Time  Avg Frame Size  Max Frame Size  Max Frame Time
------          -------         ------          --------------  --------------  --------------  --------------  --------------  --------------  --------------  --------------  --------------  --------------
1               0:00:00.000     0:04:20.260     35 642 kbps     49 902 kbps     00:04:15.421    39 815 kbps     00:04:11.501    37 887 kbps     00:00:22.939    185 793 bytes   630 756 bytes   00:04:16.214
2               0:04:20.260     0:09:50.590     34 576 kbps     44 900 kbps     00:07:55.183    38 408 kbps     00:08:52.532    37 860 kbps     00:09:58.472    180 263 bytes   585 949 bytes   00:08:29.967
3               0:14:10.850     0:05:06.305     34 383 kbps     52 095 kbps     00:19:11.400    38 145 kbps     00:14:41.630    37 832 kbps     00:14:55.728    179 257 bytes   633 668 bytes   00:19:12.109
4               0:19:17.156     0:06:09.368     34 477 kbps     40 939 kbps     00:23:24.653    38 164 kbps     00:23:34.371    37 817 kbps     00:23:29.491    179 745 bytes   404 314 bytes   00:25:20.018
5               0:25:26.524     0:04:10.250     34 432 kbps     53 550 kbps     00:29:34.022    39 187 kbps     00:29:30.018    38 175 kbps     00:29:25.013    179 511 bytes   633 550 bytes   00:29:34.939
6               0:29:36.774     0:05:38.338     34 763 kbps     47 114 kbps     00:34:36.908    39 337 kbps     00:34:32.945    37 895 kbps     00:34:43.998    181 239 bytes   567 052 bytes   00:34:37.533
7               0:35:15.113     0:05:50.349     35 404 kbps     49 644 kbps     00:41:00.749    38 527 kbps     00:36:45.494    37 974 kbps     00:37:54.146    184 579 bytes   601 696 bytes   00:41:01.417
8               0:41:05.462     0:05:46.346     35 747 kbps     47 940 kbps     00:45:17.172    39 632 kbps     00:45:13.043    38 771 kbps     00:45:08.122    186 367 bytes   540 198 bytes   00:45:17.715
9               0:46:51.809     0:04:08.623     36 136 kbps     42 494 kbps     00:46:58.982    38 257 kbps     00:46:54.853    37 935 kbps     00:50:29.568    188 429 bytes   477 424 bytes   00:47:06.031
STREAM DIAGNOSTICS:
File            PID             Type            Codec           Language                Seconds                 Bitrate                 Bytes           Packets
----            ---             ----            -----           --------                --------------          --------------          -------------   -----
00002.M2TS      4113 (0x1011)   0x1B            AVC                                     3060,266                35 000                  13 388 699 575  72 806 949
00002.M2TS      4352 (0x1100)   0x80            LPCM            jpn (Japanese)          3060,266                1 542                   590 021 984     3 672 336

Код: Выделить всё
<---- END FORUMS PASTE ---->
QUICK SUMMARY:
Disc Title: Anthem - Gypsy Ways + Hunting Time
Disc Size: 30 422 659 216 bytes
Protection: AACS
BD-Java: No
Playlist: 00002.MPLS
Size: 14 703 710 208 bytes
Length: 0:51:00.432
Total Bitrate: 38,44 Mbps
Video: MPEG-4 AVC Video / 34998 kbps / 1080p / 23,976 fps / 16:9 / High Profile 4.1
Audio: Japanese / LPCM Audio / 2.0 / 48 kHz / 1536 kbps / 16-bit
********************
PLAYLIST: 00000.MPLS
********************
<--- BEGIN FORUMS PASTE --->
Код:
Код: Выделить всё
Total   Video
Title                                                           Codec   Length  Movie Size      Disc Size       Bitrate Bitrate Main Audio Track                          Secondary Audio Track
-----                                                           ------  ------- --------------  --------------  ------- ------- ------------------                        ---------------------
00000.MPLS                                                      MPEG-2  0:00:23 112 416 768     30 422 659 216  38,50   35,06   LPCM 2.0 1536Kbps (48kHz/16-bit)

Код:
Код: Выделить всё
DISC INFO:
Disc Title:     Anthem - Gypsy Ways + Hunting Time
Disc Size:      30 422 659 216 bytes
Protection:     AACS
BD-Java:        No
BDInfo:         0.5.8
PLAYLIST REPORT:
Name:                   00000.MPLS
Length:                 0:00:23.356 (h:m:s.ms)
Size:                   112 416 768 bytes
Total Bitrate:          38,50 Mbps
VIDEO:
Codec                   Bitrate             Description
-----                   -------             -----------
MPEG-2 Video            35059 kbps          1080i / 29,970 fps / 16:9
AUDIO:
Codec                           Language        Bitrate         Description
-----                           --------        -------         -----------
LPCM Audio                      Japanese        1536 kbps       2.0 / 48 kHz / 1536 kbps / 16-bit
FILES:
Name            Time In         Length          Size            Total Bitrate
----            -------         ------          ----            -------------
00000.M2TS      0:00:00.000     0:00:23.356     112 416 768     38 504
CHAPTERS:
Number          Time In         Length          Avg Video Rate  Max 1-Sec Rate  Max 1-Sec Time  Max 5-Sec Rate  Max 5-Sec Time  Max 10Sec Rate  Max 10Sec Time  Avg Frame Size  Max Frame Size  Max Frame Time
------          -------         ------          --------------  --------------  --------------  --------------  --------------  --------------  --------------  --------------  --------------  --------------
1               0:00:00.000     0:00:23.356     35 059 kbps     35 332 kbps     00:00:12.512    35 177 kbps     00:00:11.511    35 157 kbps     00:00:08.508    146 227 bytes   170 831 bytes   00:00:18.518
STREAM DIAGNOSTICS:
File            PID             Type            Codec           Language                Seconds                 Bitrate                 Bytes           Packets
----            ---             ----            -----           --------                --------------          --------------          -------------   -----
00000.M2TS      4113 (0x1011)   0x02            MPEG-2                                  23,323                  35 109                  102 358 556     556 658
00000.M2TS      4352 (0x1100)   0x80            LPCM            jpn (Japanese)          23,323                  1 545                   4 503 808       28 032

Код: Выделить всё
<---- END FORUMS PASTE ---->
QUICK SUMMARY:
Disc Title: Anthem - Gypsy Ways + Hunting Time
Disc Size: 30 422 659 216 bytes
Protection: AACS
BD-Java: No
Playlist: 00000.MPLS
Size: 112 416 768 bytes
Length: 0:00:23.356
Total Bitrate: 38,50 Mbps
Video: MPEG-2 Video / 35059 kbps / 1080i / 29,970 fps / 16:9
Audio: Japanese / LPCM Audio / 2.0 / 48 kHz / 1536 kbps / 16-bit


Правила, инструкции, FAQ!!!
Торрент  Добавлен [12 янв 2020, 20:22] Скачать торрент
Скачать торрент
[ Размер 144.21 КБ / Просмотров 1 ]

Статус
Проверен 
 
Размер  28.33 ГБ
Приватный: Нет (DHT включён)
.torrent скачан  0
Как залить торрент? | Как скачать Torrent? | Как смотреть и слушать онлайн?  
Гость
 


Вернуться в Концерты (HD-Video)

Кто сейчас на конференции

Сейчас этот форум просматривают: нет зарегистрированных пользователей и гости: 0

   Наша команда  Удалить cookies конференции • Часовой пояс: UTC + 3 часа

Пользовательское соглашение  |  Для правообладателей  | 

croncron