Алиса ХХХ лет (2013) IPTVRip[H.264]


Статистика раздачи
Размер: 1.55 ГБ | Добавлен: 27 дек 2013, 08:28 | Скачали: 13
Сидеров: 61  [0 байт/сек]    Личеров: 6  [0 байт/сек]

Сообщение Гость » 27 дек 2013, 08:28

Алиса ХХХ лет (2013) IPTVRip

Год выпуска: 2013
Жанр: Музыкальный, Документальный

Описание фильма:
Группа «Алиса» 30 ноября 2013 отметила 30-летие большим концертом в Москве. За сценой «Олимпийского» Константин Кинчев рассказал нам, что к юбилею команды уже снят фильм. Однако с его выпуском возникли сложности:

«Фильм уже сделан. Единственное, там есть технические неполадки. Я так думаю… я надеюсь, что правообладатель этого фильма, все-таки, позволит выложить его, хотя бы, в youtube для уважаемой публики. В качестве DVD, я думаю, вряд ли, он вообще появится. Оказывается, для того, чтобы выпустить DVD нужно регистрировать этот DVD в Минкульте, еще где-то… это такая рутинная работа. Этот закон, кстати, приняли совсем недавно. То есть мы, снимая собственный фильм о себе не имеем права без Минкульта, где будут утверждать… то есть это, в общем, называется литовка. Как это было при советской власти – мы к этому вернулись, в общем-то. Цензура в чистом виде. То есть мы должны пройти вот этот цензорный этап для того, чтобы мы могли это продавать. Я думаю, мы просто всем «алисаманам» сделаем подарок и выпустим его на youtube в хорошем качестве. Где каждый сможет его качнуть. И все».

По словам Константина Кинчева, этот фильм – «очень хорошее, трепетное и приятное home-видео». Будем надеяться, что мы вместе с армией «Алисы», все-таки, сможем его увидеть. Хотя бы в интернете.

Режиссер: Рашид Нугманов
Актеры: Константин Кинчев (вокал, акустическая гитара), Пётр Самойлов (бас, вокал), Андрей Королёв (клавиши), Игорь Чумычкин (гитара), Андрей Шаталин (гитара), Михаил Нефедов (ударные) и др.

Продолжительность: 01:33:51
Качество видео: DVDRip
Перевод: Отсутствует
Язык: Русский

Дата мировой премьеры: 2013
Дата российской премьеры: 2013
Дата выхода DVD релиза: отсутствует

Видеокодек: MPEG-4 AVC/H.264
Битрейт видео: ~2,1 Mbps
Размер кадра: 1280 х 720
Аудиокодек: AAC
Битрейт аудио: 192 kbps Общее
Полное имя : F:\KINO\АЛИСА XXX фильм.mp4
Формат : MPEG-4
Профиль формата : Base Media / Version 2
Идентификатор кодека : mp42
Размер файла : 1,55 Гбайт
Продолжительность : 1 ч. 33 м.
Общий поток : 2366 Кбит/сек
Дата кодирования : UTC 2013-12-19 20:17:49
Дата пометки : UTC 2013-12-19 20:17:49
gsst : 0
gstd : 5631766
gssd : B4A7D6E62HH1388070891456724
gshh : r2---sn-n8v7sn7l.googlevideo.com

Видео
Идентификатор : 1
Формат : AVC
Формат/Информация : Advanced Video Codec
Профиль формата :
Параметр CABAC формата : Да
Параметр ReFrames формата : 1 кадр
Идентификатор кодека : avc1
Идентификатор кодека/Информация : Advanced Video Coding
Продолжительность : 1 ч. 33 м.
Битрейт : 2171 Кбит/сек
Максимальный битрейт : 8275 Кбит/сек
Ширина : 1280 пикс.
Высота : 720 пикс.
Соотношение сторон : 16:9
Режим частоты кадров : Постоянный
Частота кадров : 25,000 кадр/сек
Цветовое пространство : YUV
Подвыборка цветности : 4:2:0
Битовая глубина : 8 бит
Тип развёртки : Прогрессивная
Бит/(Пиксели*Кадры) : 0.094
Размер потока : 1,42 Гбайт (92%)
Дата пометки : UTC 2013-12-19 20:20:38

Аудио
Идентификатор : 2
Формат : AAC
Формат/Информация : Advanced Audio Codec
Профиль формата : LC
Идентификатор кодека : 40
Продолжительность : 1 ч. 33 м.
Вид битрейта : Переменный
Битрейт : 192 Кбит/сек
Максимальный битрейт : 201 Кбит/сек
Каналы : 2 канала
Расположение каналов : Front: L R
Частота : 44,1 КГц
Метод сжатия : С потерями
Размер потока : 129 Мбайт (8%)
Заголовок : IsoMedia File Produced by Google, 5-11-2011
Дата кодирования : UTC 2013-12-19 20:19:36
Дата пометки : UTC 2013-12-19 20:20:38 [/spoiler] Скриншоты:



Правила, инструкции, FAQ!!!
Торрент  Добавлен [27 дек 2013, 08:28] Скачать торрент
Скачать торрент
[ Размер 16.3 КБ / Просмотров 74 ]

Статус
Проверен 
 
Размер  1.55 ГБ
Приватный: Нет (DHT включён)
.torrent скачан  13
Как залить торрент? | Как скачать Torrent? | Как смотреть и слушать онлайн?  
Гость
 


Вернуться в Клипы (HD-Video)

Кто сейчас на конференции

Сейчас этот форум просматривают: нет зарегистрированных пользователей и гости: 0

   Наша команда  Удалить cookies конференции • Часовой пояс: UTC + 3 часа

Пользовательское соглашение  |  Для правообладателей  | 

cron