Аэлла - Ночные Ведьмы (Aella - Night Witches) официальный клип [2013, Hard Rock, Master HD 720p]


Статистика раздачи
Размер: 309.74 МБ | Добавлен: 28 сен 2014, 00:22 | Скачали: 0
Сидеров: 5  [0 байт/сек]    Личеров: 3  [0 байт/сек]

Сообщение Гость » 28 сен 2014, 00:22

Жанр: Hard Rock
Продолжительность: 00:07:00
Дата релиза: 9 мая 2013

Описание: Посвящение Летчицам Героям Великой Отечественной Войны.
Под именем "Ночные Ведьмы" девушки из 46-го Гвардейского Таманского авиаполка вошли в историю. Так в годы Великой Отечественной войны ночных бомбардировщиц окрестили немцы. За каждый сбитый ПО-2, управляемый молодыми девчонками, немцы получали серебряный Рыцарский крест и двойной оклад. Столь высоко немецкое руководство ценило головы ночных бомбардировщиц, которые за 3 года непрерывных боев совершили более 24 тыс. вылетов и сбросили на позиции врага более 3000 тонн бомбового груза. И все это совершили юные девушки, общая численность которых была чуть более 100 человек личного состава.

За годы войны каждая третья из них погибла, 23 стали Героями Советского Союза, 2 - Героями России и одна - Героем Республики Казахстан. Многие из них получили эти звания посмертно.

На YouTube клип получает положительные отзывы не только от жителей с территории СССР, но и из других стран
http://www.youtube.com/watch?v=p6md5DJ5flI

Режиссер: Александр Горюнов
Музыка: Алексей Мартин.
Слова: Игорь Коротышев

Исполняет группа Аэлла:
Наталья Переверзева — бас гитара
Ольга Володькина - гитара
Мария Андреева — ударные
Тиллен Аверс — вокал
Татьяна Лепская — клавиши
Ольга Андреева — гитара

Качество: Master 720p
Контейнер: MP4
Видео кодек: H.264
Аудио кодек: AAC
Видео: MPEG4 Video (H264) 1280x720 25.00fps, 5993 Кбит/сек
Аудио: AAC 48000Hz stereo 192 Кбит/сек, 2.0
Ночные ведьмы

1.
Сник закат, день угас,
Вновь по машинам зовет нас приказ.
Тьмы вуаль дарит шанс,
Ласточек скроет от вражеских глаз.

Пусть высота мала и хрупок крыльев фарс,
Но долг вселяет силу в нас!
Небесный тихоход возьмет привычный курс, -
Любой ценой доставить груз!

Припев:
Высокий пульс! В глазах огонь! Ветер в крыльях!
От женских рук стальной штурвал любовью к Родине согрет.
И пусть дрожит от страха враг - не станем горстью пыли;
Пока в сердцах живет мечта, я знаю хуже смерти лишь забвение.

2.
Видим цель - бомбы вниз!
В огненном круге вальсирует жизнь!
Но судьбой не дано
В полном составе вернуться домой.

В бою нет разницы, для пуль мы все равны:
Кому звезда, кому кресты.
Ночные Ведьмы за победу платят долг.
Сорок шестой гвардейский полк.

3.
Мир воскрес... Утра свет...
Стихли сражения тех страшных лет.
В книге войн нет страниц.
Лишь фотографии девичьих лиц.

Нет больше Ведьм Ночных, пришли другие дни,
Но в памяти живут они.
Как дань отдать тому, кто кровь за нас пролил?
Исполним героиням гимн!
Код: Выделить всё
Общее
Формат                                   : MPEG-4
Профиль формата                          : Base Media / Version 2
Идентификатор кодека                     : mp42
Размер файла                             : 310 Мбайт
Продолжительность                        : 7 м. 0 с.
Режим общего битрейта                    : Переменный
Общий поток                              : 6186 Кбит/сек
Дата кодирования                         : UTC 2013-09-16 01:59:32
Дата пометки                             : UTC 2013-09-16 01:59:32
©TIM                                     : 00:00:00:00
©TSC                                     : 25
©TSZ                                     : 1

Видео
Идентификатор                            : 1
Формат                                   : AVC
Формат/Информация                        : Advanced Video Codec
Профиль формата                          : Main@L3.2
Параметр CABAC формата                   : Да
Параметр ReFrames формата                : 3 кадра
Идентификатор кодека                     : avc1
Идентификатор кодека/Информация          : Advanced Video Coding
Продолжительность                        : 7 м. 0 с.
Битрейт                                  : 5993 Кбит/сек
Ширина                                   : 1280 пикселей
Высота                                   : 720 пикселей
Соотношение сторон                       : 16:9
Режим частоты кадров                     : Постоянный
Частота кадров                           : 25,000 кадров/сек
Стандарт вещания                         : NTSC
Цветовое пространство                    : YUV
Субдискретизация насыщенности            : 4:2:0
Битовая глубина                          : 8 бит
Тип развёртки                            : Прогрессивная
Бит/(Пиксели*Кадры)                      : 0.260
Размер потока                            : 300 Мбайт (97%)
Язык                                     : English
Дата кодирования                         : UTC 2013-09-16 01:59:32
Дата пометки                             : UTC 2013-09-16 01:59:32

Аудио
Идентификатор                            : 2
Формат                                   : AAC
Формат/Информация                        : Advanced Audio Codec
Профиль формата                          : LC
Идентификатор кодека                     : 40
Продолжительность                        : 7 м. 0 с.
Продолжительность оригинала              : 7 м. 0 с.
Вид битрейта                             : Переменный
Битрейт                                  : 192 Кбит/сек
Максимальный битрейт                     : 287 Кбит/сек
Каналы                                   : 2 канала
Расположение каналов                     : Front: L R
Частота                                  : 48,0 КГц
Метод сжатия                             : С потерями
Размер потока                            : 9,48 Мбайт (3%)
Размер потока оригинала                  : 9,48 Мбайт (3%)
Язык                                     : English
Дата кодирования                         : UTC 2013-09-16 01:59:32
Дата пометки                             : UTC 2013-09-16 01:59:32
Правила, инструкции, FAQ!!!
Торрент  Добавлен [28 сен 2014, 00:22] Скачать торрент
Скачать торрент
[ Размер 12.71 КБ / Просмотров 23 ]

Статус
Проверен 
 
Размер  309.74 МБ
Приватный: Нет (DHT включён)
.torrent скачан  0
Как залить торрент? | Как скачать Torrent? | Как смотреть и слушать онлайн?  
Гость
 


Вернуться в Клипы (HD-Video)

Кто сейчас на конференции

Сейчас этот форум просматривают: нет зарегистрированных пользователей и гости: 0

   Наша команда  Удалить cookies конференции • Часовой пояс: UTC + 3 часа

Пользовательское соглашение  |  Для правообладателей  | 

cron