АББА: фильм / ABBA: The Movie (1977) BDRip 1080p


Статистика раздачи
Размер: 4.38 ГБ | Добавлен: 30 мар 2014, 23:44 | Скачали: 27
Сидеров: 119  [0 байт/сек]    Личеров: 7  [0 байт/сек]

Сообщение Гость » 30 мар 2014, 23:44

АББА: фильм

ABBA: The Movie




Год выпуска: 1977
Страна: Швеция, Австралия
Жанр: музыка
Продолжительность: 95 мин.
Перевод: Профессиональный (многоголосый, закадровый)+оригинал
Режиссер: Лассе Халльстрём
Продюссер: Стиг Андерсон, Рег Гранди
Сценарий: Роберт Касуэлл, Лассе Халльстрём
Премьера в мире: 15 декабря 1977
G - Нет возрастных ограничений

В ролях: Анни-Фрид Люнгстад, Бенни Андерссон, Бьёрн Ульвеус, Агнета Фэльтскуг, Роберт Хьюз, Том Оливер, Брюс Бэрри, Стиг Андерсон, Кэлвин Кросс, Ивар Дальборн
Описание: Фильм охватывает период наивысшей популярности шведской группы "АББА", между альбомом 1976 года «Arrival» и альбомом 1977 года «The Album», песни из которых представлены в виде видеозарисовок. Фильм рассказывает об австралийских гастролях группы. Незадачливый репортер и диск-жокей (Хьюз) пытается взять интервью у музыкантов. Зритель узнает о жизни и работе популярного квартета. В фильме звучат хиты: "Dancing Queen", "Tiger", "Name Of The Game", "Eagle", "Thank You For The Music" и др.
Качество: BDRip 1080p( источник Blu-ray (1080p)
Формат: MKV
Видео кодек: H.26x
Аудио кодек: AC3
Видео: English, 4840 Кбит/сек, 1920*816 (2,450), в 24,000 кадр/сек, AVC
Аудио#: Russian, 640 Кбит/сек, 48,0 КГц, 16 бит, 6 канала(ов), AC-3
Аудио#:Russian640 Кбит/сек, 48,0 КГц, 16 бит, 6 канала(ов), AC-3(А.Гаврилов)
Аудио#:English448 Кбит/сек, 48,0 КГц, 16 бит, 6 канала(ов), AC-3
Субтитры:VobSubEnglish:VobSubRussian
Полное имя : E:торрентABBA The Movie 1977 BDRip 1080p.mkv
Формат : Matroska
Размер файла : 4,38 Гбайт
Продолжительность : 1 ч. 35 м.
Общий поток : 6576 Кбит/сек
Дата кодирования : UTC 2011-02-11 11:18:10
Программа кодирования : mkvmerge v4.5.0 ('Speed of Light') built on Feb 1 2011 02:10:32
Библиотека кодирования : libebml v1.2.0 + libmatroska v1.1.0

Видео
Идентификатор : 1
Формат : AVC
Формат/Информация : Advanced Video Codec
Профиль формата : High@L5.0
Параметр CABAC формата : Да
Параметр ReFrames формата : 14 кадры
Параметры GOP формата : M=6, N=31
Идентификатор кодека : V_MPEG4/ISO/AVC
Продолжительность : 1 ч. 35 м.
Битрейт : 4840 Кбит/сек
Ширина : 1920 пикс.
Высота : 816 пикс.
Соотношение сторон : 2,450
Частота кадров : 24,000 кадр/сек
Цветовое пространство : YUV
Подвыборка цветности : 4:2:0
Битовая глубина : 8 бит
Тип развёртки : Прогрессивная
Бит/(Пиксели*Кадры) : 0.129
Размер потока : 3,14 Гбайт (72%)
Библиотека кодирования : x264 core 114 r1900 60ef1f8
Настройки программы : cabac=1 / ref=14 / deblock=1:-3:-3 / analyse=0x3:0x133 / me=umh / subme=7 / psy=1 / psy_rd=1.00:0.00 / mixed_ref=1 / me_range=16 / chroma_me=1 / trellis=2 / 8x8dct=1 / cqm=0 / deadzone=21,11 / fast_pskip=1 / chroma_qp_offset=-2 / threads=6 / sliced_threads=0 / nr=0 / decimate=1 / interlaced=0 / constrained_intra=0 / bframes=5 / b_pyramid=2 / b_adapt=1 / b_bias=0 / direct=1 / weightb=1 / open_gop=0 / weightp=2 / keyint=250 / keyint_min=24 / scenecut=40 / intra_refresh=0 / rc_lookahead=40 / rc=2pass / mbtree=1 / bitrate=4840 / ratetol=1.0 / qcomp=0.80 / qpmin=10 / qpmax=51 / qpstep=4 / cplxblur=20.0 / qblur=0.5 / ip_ratio=1.40 / aq=1:1.00
Язык : English

Аудио #1
Идентификатор : 2
Формат : AC-3
Формат/Информация : Audio Coding 3
Расширение режима : CM (complete main)
Идентификатор кодека : A_AC3
Продолжительность : 1 ч. 35 м.
Вид битрейта : Постоянный
Битрейт : 640 Кбит/сек
Канал(ы) : 6 канала(ов)
Расположение каналов : Front: L C R, Side: L R, LFE
Частота : 48,0 КГц
Битовая глубина : 16 бит
Метод сжатия : С потерями
Размер потока : 436 Мбайт (10%)
Язык : Russian

Аудио #2
Идентификатор : 3
Формат : AC-3
Формат/Информация : Audio Coding 3
Расширение режима : CM (complete main)
Идентификатор кодека : A_AC3
Продолжительность : 1 ч. 35 м.
Вид битрейта : Постоянный
Битрейт : 448 Кбит/сек
Канал(ы) : 6 канала(ов)
Расположение каналов : Front: L C R, Side: L R, LFE
Частота : 48,0 КГц
Битовая глубина : 16 бит
Метод сжатия : С потерями
Размер потока : 305 Мбайт (7%)

Аудио #3
Идентификатор : 4
Формат : AC-3
Формат/Информация : Audio Coding 3
Расширение режима : CM (complete main)
Идентификатор кодека : A_AC3
Продолжительность : 1 ч. 35 м.
Вид битрейта : Постоянный
Битрейт : 640 Кбит/сек
Канал(ы) : 6 канала(ов)
Расположение каналов : Front: L C R, Side: L R, LFE
Частота : 48,0 КГц
Битовая глубина : 16 бит
Метод сжатия : С потерями
Размер потока : 436 Мбайт (10%)
Язык : English

Текст #1
Идентификатор : 5
Формат : VobSub
Режим смешивания : zlib
Идентификатор кодека : S_VOBSUB
Идентификатор кодека/Информация : The same subtitle format used on DVDs
Язык : Russian

Текст #2
Идентификатор : 6
Формат : VobSub
Режим смешивания : zlib
Идентификатор кодека : S_VOBSUB
Идентификатор кодека/Информация : The same subtitle format used on DVDs
Язык : English

Меню
00:00:00.000 : en:00:00:00.000
00:03:41.125 : en:00:03:41.125
00:05:56.208 : en:00:05:56.208
00:10:18.417 : en:00:10:18.417
00:18:36.875 : en:00:18:36.875
00:25:27.375 : en:00:25:27.375
00:32:20.042 : en:00:32:20.042
00:41:58.125 : en:00:41:58.125
00:48:05.792 : en:00:48:05.792
00:52:53.167 : en:00:52:53.167
01:03:39.542 : en:01:03:39.542
01:12:35.292 : en:01:12:35.292
01:17:07.667 : en:01:17:07.667
01:21:33.542 : en:01:21:33.542
01:29:54.458 : en:01:29:54.458
01:33:29.792 : en:01:33:29.792






Релиз от:
Правила, инструкции, FAQ!!!
Торрент  Добавлен [30 мар 2014, 23:44] Скачать торрент
Скачать торрент
[ Размер 22.39 КБ / Просмотров 114 ]

Статус
Проверен 
 
Размер  4.38 ГБ
Приватный: Нет (DHT включён)
.torrent скачан  27
Как залить торрент? | Как скачать Torrent? | Как смотреть и слушать онлайн?  
Гость
 


Вернуться в Клипы (HD-Video)

Кто сейчас на конференции

Сейчас этот форум просматривают: нет зарегистрированных пользователей и гости: 0

   Наша команда  Удалить cookies конференции • Часовой пояс: UTC + 3 часа

Пользовательское соглашение  |  Для правообладателей  | 

cron